<?xml version="1.0" standalone="no"?>
<!DOCTYPE svg PUBLIC "-//W3C//DTD SVG 1.1//EN" "http://www.w3.org/Graphics/SVG/1.1/DTD/svg11.dtd" >
<svg xmlns="http://www.w3.org/2000/svg">
<metadata>Generated by IcoMoon</metadata>
<defs>
<font id="Orthodontics" horiz-adv-x="1024">
<font-face units-per-em="1024" ascent="960" descent="-64" />
<missing-glyph horiz-adv-x="1024" />
<glyph unicode="&#x20;" horiz-adv-x="512" d="" />
<glyph unicode="&#xe900;" glyph-name="broken-tooth" d="M670.375 753.203h-59.109c-75.125 0-141.015-40.281-177.234-100.359-36.211 60.078-102.109 100.359-177.226 100.359h-59.109c-81.437 0-147.695-66.258-147.695-147.695v-161.961c0-62.375 31.32-120.633 82.601-155.187l40.133-200.617c1.219-6.086 4.32-11.633 8.867-15.852l137.859-128c8.609-7.992 21.141-10.125 31.906-5.43s17.727 15.328 17.727 27.078v141.133c0 46.437 25.102 88.828 64.937 111.344 39.836-22.516 64.937-64.906 64.937-111.344v-141.133c0-11.75 6.961-22.383 17.727-27.078 10.664-4.648 23.391-2.484 31.906 5.43l137.859 128c4.547 4.219 7.648 9.766 8.867 15.852l40.133 200.617c51.281 34.555 82.601 92.812 82.601 155.187v161.961c0 81.437-66.25 147.695-147.687 147.695zM758.984 443.547c0-45.867-24.758-88.484-64.617-111.219-0.047-0.023-0.086-0.055-0.133-0.086-13.070-7.43-27.266-12.461-42.187-14.953l-45.625-7.609c-16.094-2.68-26.961-17.906-24.281-33.992 2.648-15.875 18.117-26.93 33.992-24.281l45.625 7.609c2.648 0.445 5.273 0.945 7.883 1.492l-30.367-151.812-81.234-75.422v73.406c0 74.359-44.039 141.633-112.195 171.375-7.875 3.289-15.75 3.289-23.625 0-68.156-29.742-112.195-97.016-112.195-171.375v-73.406l-81.234 75.422-30.375 151.812c2.617-0.547 5.242-1.047 7.883-1.492l45.625-7.609c15.883-2.648 31.352 8.406 34 24.281 2.68 16.086-8.187 31.312-24.281 33.992l-45.625 7.609c-14.93 2.492-29.125 7.523-42.195 14.961-0.047 0.023-0.086 0.055-0.133 0.086-39.852 22.727-64.609 65.344-64.609 111.211v161.961c0 48.859 39.75 88.617 88.617 88.617h59.109c81.437 0 147.687-66.258 147.687-147.695 0-16.312 13.227-29.539 29.539-29.539s29.539 13.227 29.539 29.539c0 77.789 60.469 141.68 136.859 147.25v-48.758c0-7.961 3.219-15.586 8.914-21.141l18.961-18.5-57.625-57.625c-11.531-11.539-11.531-30.242 0-41.773 11.383-11.383 30.398-11.383 41.773 0l78.773 78.766c5.586 5.586 8.695 13.172 8.648 21.070s-3.258 15.445-8.906 20.961l-31.461 30.687v36.75h10.859c48.867 0 88.617-39.75 88.617-88.609zM739.234 832c16.312 0 29.539 13.227 29.539 29.539v68.922c0 16.312-13.227 29.539-29.539 29.539s-29.539-13.227-29.539-29.539v-68.922c0-16.312 13.227-29.539 29.539-29.539zM906.328 849.016c11.531 11.531 11.531 30.234 0 41.773-11.539 11.531-30.242 11.531-41.773 0l-48.734-48.734c-11.539-11.539-11.539-30.242 0-41.773 11.375-11.383 30.391-11.383 41.773 0zM946 753.235h-68.922c-16.312 0-29.539-13.227-29.539-29.539s13.227-29.539 29.539-29.539h68.922c16.312 0 29.539 13.227 29.539 29.539s-13.227 29.539-29.539 29.539z" />
<glyph unicode="&#xe901;" glyph-name="dentist-2" d="M766.109 298.305c43.914 52.742 70.281 117.078 75.977 185.539 80.992 27.344 81.961 141.898 1.164 170.414v195.578c0 60.742-49.492 110.164-110.336 110.164h-441.828c-60.844 0-110.336-49.422-110.336-110.164v-195.578c-80.547-28.43-79.969-142.789 0.945-170.336 5.141-68.547 31.227-132.906 75.148-185.664-142.875-7.375-256.844-125.719-256.844-270.133v-62.125c0-16.57 13.43-30 30-30h964c16.57 0 30 13.43 30 30v62.125c0 144.766-114.523 263.328-257.891 270.18zM512 238.5c-119.102 0.008-219.133 76.328-255.906 180.5h510.891c-38.008-105.117-138.336-180.5-254.984-180.5zM291.086 900h441.836c27.75 0 50.328-22.508 50.328-50.164v-130.336h-154.672c-13.375 51.805-60.57 90.188-116.578 90.188-56 0-103.195-38.383-116.578-90.188h-154.672v130.336c0 27.656 22.578 50.164 50.336 50.164zM572.375 689.5c0-33.188-27.086-60.188-60.375-60.188s-60.375 27-60.375 60.188 27.086 60.188 60.375 60.188 60.375-27 60.375-60.188zM180.5 569.25c0 16.609 13.57 30.125 30.25 30.125 16.57 0 30 13.438 30 30v30.125h154.672c13.383-51.805 60.57-90.188 116.578-90.188s103.195 38.383 116.578 90.188h154.672v-30.125c0-16.57 13.43-30 30-30 16.68 0 30.25-13.516 30.25-30.125s-13.578-30.125-30.266-30.125c-16.453 0-29.844-13.258-30-29.719-0.094-10.281-0.781-20.422-1.984-30.406h-538.828c-1.094 9.938-1.672 19.984-1.672 30.125 0 16.57-13.43 30-30 30-16.68 0-30.25 13.516-30.25 30.125zM60 28.125c0 116.070 94.656 210.5 211 210.5h50.391c47.336-33.383 102.398-53.594 160.609-58.773v-183.852h-422zM964-4h-422v183.875c57.773 5.203 112.5 25.406 159.641 58.75h51.359c116.344 0 211-94.43 211-210.5zM362 568c0-16.57-13.43-30-30-30s-30 13.43-30 30 13.43 30 30 30 30-13.43 30-30zM722 568c0-16.57-13.43-30-30-30s-30 13.43-30 30 13.43 30 30 30 30-13.43 30-30z" />
<glyph unicode="&#xe902;" glyph-name="dentist" d="M537.080 755.32c0-16.314-13.226-29.54-29.54-29.54s-29.54 13.226-29.54 29.54c0 16.314 13.226 29.54 29.54 29.54s29.54-13.226 29.54-29.54zM876.746 198.384l-220.122 99.696c58.958 44.072 97.874 113.552 100.332 192.070 13.144 4.702 25.154 12.366 35.176 22.62 17.108 17.5 26.528 40.62 26.528 65.096s-9.42 47.596-26.528 65.096c-9.99 10.222-21.956 17.868-35.052 22.574v125.772h-0.632v16.596c-0.002 83.866-68.234 152.096-152.098 152.096h-194.248c-83.866 0-152.096-68.23-152.096-152.096v-62.59h0.004v-79.78c-13.098-4.706-25.062-12.352-35.052-22.574-17.108-17.5-26.528-40.62-26.528-65.096s9.42-47.596 26.528-65.096c10.022-10.254 22.032-17.918 35.176-22.62 2.504-80.018 42.866-150.654 103.72-194.572l-214.6-97.194c-52.080-23.59-85.732-75.774-85.732-132.946v-129.436h60v129.44c0 33.668 19.818 64.398 50.486 78.29l85.118 38.55-30.332-145.73 131.74-100.55h152.73l-63.122 159.118h127.652l-63.122-159.118h152.73l131.74 100.548-30.338 145.762 85.188-38.584c30.668-13.89 50.486-44.622 50.486-78.29v-129.436h60v129.44c0 57.172-33.652 109.354-85.732 132.944zM697.078 713.236v-27.202c-23.276 12.196-38.094 29.798-47.27 45.274h46.638v-18.072h0.632zM410.102 900h194.248c50.782 0 92.096-41.314 92.096-92.096v-16.596h-64.070c-15.652 54.192-65.67 93.954-124.834 93.954s-109.184-39.76-124.836-93.954h-64.698v16.596h-0.002c0 50.782 41.314 92.096 92.096 92.096zM577.396 751.742c-1.866-36.914-32.484-66.374-69.854-66.374-38.568 0-69.948 31.376-69.948 69.946s31.378 69.948 69.948 69.948c38.57 0 69.946-31.378 69.946-69.948 0-0.83-0.034-1.652-0.062-2.476l-0.248-0.048c0.034-0.184 0.11-0.55 0.218-1.048zM364.002 731.308c-9.304-15.036-23.896-32.382-45.992-45.12v45.12h45.992zM318.010 498.052v45.97l-29.27 0.712c-17.816 0.436-32.31 15.296-32.31 33.128s14.494 32.694 32.31 33.128l29.27 0.712v8.506c38.536 13.798 65.258 37.158 83.44 60.206 23.558-33.268 62.318-55.048 106.092-55.048 43.29 0 81.676 21.298 105.304 53.944 18.142-22.952 44.986-45.548 84.232-58.254v-9.352l29.27-0.712c17.816-0.436 32.31-15.296 32.31-33.128s-14.494-32.694-32.31-33.128l-29.27-0.712v-45.97c0-104.516-85.030-189.544-189.544-189.544-104.504-0.002-189.524 85.028-189.524 189.542zM378.814-4l-85.58 65.318 31.554 151.606 10.232 4.634 87.892-221.558h-44.098zM424.34 155.118v0l-34.602 87.224 40.614 18.394c24.314-7.928 50.254-12.228 77.18-12.228 30.354 0 59.454 5.464 86.386 15.434l-1.25-2.762 41.54-18.814-34.612-87.248h-175.256zM645.12-4h-44.098l87.89 221.558 10.232-4.634 31.554-151.606-85.578-65.318z" />
<glyph unicode="&#xe903;" glyph-name="tooth-2" d="M946.922 738.814c-9.83 54.088-35.642 103.296-74.646 142.298-98.372 98.374-254.436 104.746-360.276 19.1-105.838 85.644-261.902 79.272-360.274-19.1-39.004-39.002-64.816-88.21-74.646-142.298-8.832-48.594-4.282-98.062 13.058-143.894-34.716-92.35-17.126-200.050 52.8-276.826v-312.996c0-30.776 18.976-56.602 48.344-65.798 29.368-9.194 59.686 1.194 77.24 26.472 0.602 0.868 1.158 1.766 1.666 2.692l119.686 218.364c8.41 15.342 24.504 24.876 42 24.876h160.254c17.496 0 33.59-9.53 42-24.874l119.686-218.364c0.508-0.926 1.064-1.826 1.666-2.692 13.308-19.166 33.958-29.774 55.964-29.774 7.016 0 14.172 1.080 21.272 3.302 29.37 9.196 48.344 35.024 48.344 65.798v312.994c69.926 76.774 87.516 184.476 52.8 276.826 17.344 45.832 21.892 95.3 13.062 143.894zM829.846 351.316c-5.624-5.626-8.784-13.256-8.784-21.212v-325.004c0-5.432-3.412-7.642-6.272-8.538-2.658-0.834-6.352-1.006-9.348 2.552l-118.694 216.556c-18.944 34.564-55.2 56.036-94.618 56.036h-160.254c-39.418 0-75.672-21.47-94.618-56.036l-118.696-216.554c-2.994-3.558-6.688-3.384-9.348-2.552-2.862 0.896-6.272 3.104-6.272 8.538v325c0 7.956-3.162 15.586-8.788 21.212-81.782 81.782-81.782 214.852 0 296.634 39.618 39.616 92.29 61.434 148.316 61.434s108.7-21.818 148.316-61.434c11.714-11.716 30.712-11.716 42.428 0 39.618 39.616 92.29 61.434 148.316 61.434s108.7-21.818 148.316-61.434c81.782-81.78 81.782-214.848 0-296.632zM890.48 670.262c-5.67 6.934-11.736 13.65-18.2 20.116-98.372 98.374-254.436 104.744-360.276 19.098-105.84 85.644-261.904 79.274-360.276-19.098-6.466-6.466-12.53-13.182-18.2-20.116-6.044 61.28 15.21 123.008 60.626 168.424 81.782 81.78 214.85 81.782 296.634 0 11.714-11.716 30.712-11.716 42.428 0 81.786 81.782 214.854 81.78 296.634 0 45.416-45.418 66.672-107.144 60.63-168.424z" />
<glyph unicode="&#xe904;" glyph-name="tooth" d="M787.268 370.339c4.15 38.42 6.278 78.056 6.278 118.278 0 19.85 10.042 34.744 27.792 59.36 25.192 34.934 59.694 82.78 59.694 171.888 0 64.282-25.592 124.788-72.062 170.372-47.12 46.222-109.188 71.010-174.752 69.716-59.35-1.142-116.036-23.986-159.622-64.32-5.2-4.814-13.348-4.812-18.548 0-43.586 40.332-100.272 63.176-159.618 64.32-65.614 1.268-127.638-23.494-174.758-69.716-46.472-45.584-72.064-106.092-72.064-170.376 0-83.546 32.152-132.046 57.99-171.014 17.078-25.76 29.414-44.37 29.414-66.782 0-367.273 157.408-500.563 164.11-506.057l48.798-40.010v63.104c0 75.078 14.752 164.798 38.502 234.144 25.368 74.074 54.876 107.23 72.868 107.23 12.082 0 27.638-12.894 42.678-35.38 16.89-25.254 32.424-61.068 45.108-103.89-2.968-14.208-4.538-28.926-4.538-44.004 0-118.514 96.416-214.93 214.93-214.93s214.93 96.416 214.93 214.93c-0.006 109.094-81.702 199.456-187.13 213.136zM553.603 338.301c-27.474 41.074-58.536 61.9-92.322 61.9-51.564 0-96.302-51.042-129.372-147.604-17.84-52.094-30.998-114.762-37.39-175.36-8.412 13.022-17.386 28.52-26.334 46.674-32.598 66.14-71.454 181.964-71.454 358.157 0 40.412-20.010 70.594-39.362 99.784-23.62 35.628-48.044 72.466-48.044 138.012 0 48.112 19.236 93.476 54.164 127.736 35.578 34.898 82.356 53.552 131.78 52.638 44.69-0.862 87.38-18.068 120.206-48.444 27.948-25.864 71.732-25.864 99.68 0 32.826 30.376 75.516 47.582 120.208 48.444 49.368 0.952 96.204-17.742 131.778-52.638 34.926-34.258 54.162-79.624 54.162-127.734 0-69.822-24.61-103.95-48.412-136.954-19.21-26.64-39.074-54.186-39.074-94.292 0-40.564-2.282-80.444-6.726-118.918-58.974-8.944-110.154-41.944-143.196-88.642-9.344 21.858-19.53 41.154-30.292 57.242zM759.461 1.998c-85.58 0-155.204 69.626-155.204 155.204s69.624 155.204 155.204 155.204c85.58 0 155.204-69.626 155.204-155.204s-69.624-155.204-155.204-155.204zM837.974 193.483l-42.232 42.232-36.28-36.28-36.28 36.28-42.232-42.232 36.28-36.28-36.28-36.278 42.232-42.232 36.28 36.28 36.28-36.28 42.232 42.232-36.28 36.278z" />
<glyph unicode="&#xe905;" glyph-name="first-aid-kit" d="M667.73 739.474v137.996h-311.46v-137.994h-356.27v-260.99h45.712v-459.954h932.574v459.952h45.714v260.99h-356.27zM416.27 817.47h191.46v-77.994h-191.46v77.994zM105.712 78.532v399.952h812.574v-399.952h-812.574zM964 538.484h-904v140.99h904v-140.99zM542 308.51v96.766h-60v-96.766h-96.764v-60h96.764v-96.766h60v96.766h96.764v60z" />
<glyph unicode="&#xe906;" glyph-name="molar" d="M910.544 670.505c-16.692 16.37-35.956 29.028-56.822 37.67 0.612 8.856 0.754 16.728 0.754 22.020 0 61.52-24.492 119.424-68.962 163.048-45.090 44.228-104.512 67.976-167.226 66.71-56.792-1.094-111.040-22.954-152.748-61.55-4.548-4.21-11.408-4.208-15.954 0-41.708 38.596-95.954 60.456-152.746 61.55-62.74 1.204-122.136-22.48-167.226-66.71-44.472-43.622-68.964-101.528-68.964-163.052 0-79.894 30.718-126.226 55.402-163.456 16.132-24.334 27.788-41.916 27.788-62.868 0-129.57 40.952-252.032 75.308-331.947 37.090-86.284 73.918-141.86 75.468-144.182l54.364-81.518v97.982c0 70.99 14.292 156.122 37.296 222.174 13.98 40.136 29.104 67.526 42.632 83.598 10.594-170.392 106.282-315.783 110.586-322.233l54.364-81.518v97.98c0 51.318 10.080 112.63 26.304 160.006 17.574 51.312 36.39 68.582 42.274 68.582 6.53 0 26.028-16.276 44.618-66.582 17.638-47.736 28.17-108.3 28.17-162.006v-108.202l55.198 93.064c4.576 7.716 112.066 190.834 112.066 355.685 0 11.090 6.054 20.004 17.654 36.090 18.236 25.288 43.212 59.92 43.212 124.788-0.008 47.128-18.76 91.478-52.81 124.878zM408.951 421.733c1.656-2.498 3.204-4.848 4.662-7.096-32.256-19.824-60.608-63.344-83.388-128.742-14.736-42.312-26.19-91.806-33.118-141.1-40.962 83.008-93.92 217.678-93.92 359.071 0 38.84-19.152 67.726-37.672 95.662-22.38 33.754-45.518 68.656-45.518 130.662 0 45.452 18.176 88.312 51.174 120.682 33.618 32.976 77.848 50.598 124.524 49.742 42.228-0.816 82.562-17.070 113.578-45.77 27.076-25.060 69.496-25.058 96.572 0 31.018 28.702 71.354 44.958 113.582 45.772 46.714 0.88 90.904-16.766 124.522-49.742 32.998-32.37 51.172-75.226 51.172-120.678 0-2.992-0.060-5.956-0.156-8.88-4.114 0.204-8.246 0.316-12.404 0.236-43.476-0.838-84.998-17.57-116.924-47.114-0.236-0.216-0.574-0.218-0.814 0-31.924 29.542-73.448 46.276-116.92 47.112-48.064 0.936-93.476-17.202-127.978-51.044-34.052-33.4-52.802-77.75-52.802-124.884 0.002-60.804 24.176-97.266 41.828-123.89zM871.996 455.553c-13.53-18.762-28.866-40.028-28.866-70.806 0-81.496-30.98-171.098-59.086-235.608-5.334 27.384-12.552 53.894-21.326 77.638-32.178 87.080-72.296 105.36-100.286 105.36-27.916 0-67.654-18.86-98.422-108.702-8.298-24.232-15.094-51.094-20.064-78.62-27.192 60.116-56.658 145.896-56.658 235.376 0 30.796-14.676 52.93-28.866 74.336-16.426 24.774-31.942 48.178-31.942 91.094 0 31.062 12.434 60.366 35.012 82.512 22.47 22.040 51.846 34.096 82.946 34.096 0.776 0 1.552-0.008 2.328-0.022 28.906-0.558 56.52-11.686 77.754-31.334 22.836-21.132 58.604-21.13 81.436 0 21.232 19.648 48.846 30.778 77.754 31.336 31.972 0.578 62.242-11.486 85.274-34.078 22.576-22.148 35.010-51.448 35.010-82.508 0.002-45.696-15.542-67.252-31.998-90.070z" />
<glyph unicode="&#xe907;" glyph-name="tooth-21" d="M631.906-63.837c-16.57 0-30 13.43-30 29.992v241.938c0 51.18-41.469 92.867-91.859 91.875-48.602-0.977-88.141-41.305-88.141-89.891v-243.93c0-16.563-13.438-29.984-30-29.984-61.234 0-63.211-1.383-72.75 4.688-126.305 80.375-204.641 234.321-193.75 403.453 4.938 76.516-9 156.367-40.305 230.93-99.797 237.383 143.102 476.461 358 349.375 43.047-25.438 96.555-25.438 139.617 0.008 216.336 127.938 459.469-114.555 356.867-352.063-31.25-72.258-45.398-152.602-40.93-232.352 9.195-167.383-67.922-319.539-186.383-398.953-9.938-6.664-11.898-5.086-80.367-5.086zM661.906-3.86h24.297c100.383 71.594 160.047 204.227 152.547 340.742-4.984 88.977 10.836 178.703 45.758 259.461 78.883 182.602-103.805 375.68-271.25 276.649-61.906-36.578-138.805-36.578-200.703-0.008-166.727 98.609-348.867-91.992-272.133-274.524 34.883-83.086 50.391-172.297 44.859-258.008-9.078-141.063 51.656-272.125 158.922-344.313h17.703v213.938c0 82.484 66.188 148.227 146.93 149.852 85.906 1.719 153.070-69.203 153.070-151.836z" />
<glyph unicode="&#xe908;" glyph-name="tooth-1" d="M868.92 919.148c-43.128 34.928-98.994 48.344-153.284 36.808l-55.63-11.824c-98.21-20.872-197.802-20.872-296.014 0l-55.628 11.824c-54.282 11.538-110.156-1.878-153.284-36.808-43.132-34.93-67.866-86.792-67.862-142.29l0.018-255.458c0.006-54.876 7.22-109.58 21.436-162.592l89.776-334.74c14.102-52.58 60.152-87.972 114.592-88.068 0.074 0 0.144 0 0.218 0 54.344 0 100.418 35.208 114.68 87.67l81.97 301.482c0.31 1.138 0.778 2.86 3.74 2.9 2.964 0.108 3.478-1.666 3.82-2.796l91.89-304.482c15.734-52.134 62.862-86.078 117.314-84.46 54.434 1.616 99.482 38.294 112.096 91.274l80.918 339.856c11.326 47.57 17.072 96.484 17.078 145.378l0.020 264.036c0.004 55.498-24.732 107.36-67.864 142.29zM876.762 512.828c-0.006-44.224-5.202-88.464-15.448-131.49l-80.92-339.856c-7.7-32.336-33.72-44.548-55.506-45.196-21.756-0.652-48.486 10-58.088 41.824l-91.89 304.482c-8.238 27.292-32.746 45.46-61.166 45.46-0.306 0-0.616-0.002-0.924-0.006-28.812-0.398-53.25-19.348-60.808-47.152l-81.968-301.48c-8.708-32.014-35.022-43.414-56.79-43.414-0.036 0-0.074 0-0.108 0-21.788 0.038-48.136 11.514-56.744 43.608l-89.778 334.74c-12.858 47.948-19.38 97.426-19.388 147.058l-0.018 255.454c-0.002 37.312 16.626 72.178 45.622 95.66 22.184 17.964 49.374 27.464 77.272 27.464 8.566 0 17.204-0.896 25.778-2.718l55.63-11.824c106.484-22.63 214.47-22.628 320.96 0l55.63 11.824c36.49 7.754 74.052-1.262 103.050-24.746 28.996-23.482 45.624-58.348 45.622-95.662l-0.020-264.030z" />
<glyph unicode="&#xe909;" glyph-name="tooth1" d="M970.461 738.461c0 122.156-99.383 221.539-221.539 221.539-115.422 0-210.5-88.734-220.625-201.578-29.125-18.68-52.906-43.719-69.883-72.758-37.547 63.938-107.039 106.953-186.399 106.953h-62.18c-84.828 0-153.836-69.008-153.836-153.836v-170.383c0-65.313 32.914-126.305 86.734-162.336l42.352-211.664c1.211-6.086 4.313-11.633 8.859-15.852l145.031-134.656c8.609-7.992 21.141-10.125 31.906-5.43s17.727 15.328 17.727 27.078v148.477c0 49.695 27.023 95.039 69.852 118.891 42.82-23.852 69.844-69.195 69.844-118.891v-148.477c0-11.75 6.961-22.383 17.727-27.078 10.664-4.648 23.391-2.484 31.906 5.43l145.031 134.656c4.547 4.219 7.648 9.766 8.867 15.852l42.344 211.664c53.828 36.023 86.742 97.016 86.742 162.336v78.992c65.484 38.531 109.539 109.75 109.539 191.071zM801.844 468.398c0-48.805-26.336-94.149-68.742-118.328-0.055-0.031-0.094-0.063-0.141-0.086-13.906-7.914-29.008-13.273-44.898-15.922l-48-8c-16.086-2.688-26.961-17.906-24.273-34 2.641-15.867 18.109-26.93 33.992-24.273l48 8c3.531 0.594 7.031 1.313 10.516 2.086l-32.516-162.524-88.399-82.078v80.742c0 77.617-45.969 147.836-117.109 178.883-7.477 3.266-16.148 3.266-23.625 0-71.141-31.047-117.109-101.266-117.109-178.883v-80.742l-88.399 82.078-32.516 162.524c3.477-0.773 6.977-1.492 10.516-2.086l48-8c15.883-2.656 31.352 8.398 33.992 24.273 2.688 16.094-8.18 31.313-24.273 34l-48 8c-15.883 2.648-30.992 8.008-44.898 15.914-0.047 0.031-0.086 0.063-0.133 0.094-42.406 24.188-68.75 69.524-68.75 118.328v170.383c0 52.25 42.508 94.758 94.758 94.758h62.18c86.516 0 156.906-70.391 156.906-156.906 0-16.313 13.227-29.539 29.539-29.539s29.539 13.227 29.539 29.539c0 42.031 16.711 81.469 45.406 110.43 0 0 0.008-0.008 0.016-0.008 23.242-97.453 111.039-170.133 215.5-170.133 18.234 0 35.961 2.234 52.922 6.406zM748.922 576c-89.578 0-162.461 72.883-162.461 162.461 0 89.586 72.883 162.461 162.461 162.461 89.586 0 162.461-72.875 162.461-162.461 0-89.578-72.875-162.461-162.461-162.461zM786.453 798.047l-51.852-55.305-22.797 25.328c-10.914 12.125-29.594 13.109-41.719 2.195s-13.109-29.594-2.195-41.719l44.305-49.234c5.531-6.141 13.391-9.688 21.656-9.773h0.305c8.156 0 15.961 3.375 21.547 9.336l73.844 78.766c11.156 11.906 10.555 30.594-1.344 41.758-11.898 11.156-30.594 10.555-41.75-1.352z" />
<glyph unicode="&#xe90a;" glyph-name="clinic" d="M898.87 565.45l87.922-70.468 37.208 46.422-168.912 135.384v278.892h-207.72v-112.406l-135.368 108.496-512-410.366 37.208-46.422 86.66 69.456v-564.626h-89.8v-59.494h955.866v59.494h-91.064v565.638zM706.86 896.186h88.732v-171.714l-88.732 71.12v100.594zM839.378-0.188h-656.018v612.31l328.64 263.402 327.376-262.392v-613.32zM695.268 418.996c0 66.436-54.050 120.486-120.486 120.486-22.43 0-44.032-6.152-62.782-17.638-18.748 11.486-40.35 17.638-62.78 17.638-66.436 0-120.486-54.050-120.486-120.486 0-23.258 6.762-45.954 19.268-65.326-3.87-19.626-7.748-53.406-0.242-91.992 10.646-54.716 40.95-99.322 87.636-128.992l43.222-27.47 2.446 51.154c0.012 0.234 1.312 24.088 8.36 50.576 5.706 21.438 13.496 38.398 22.608 49.578 23.996-25.818 28.83-77.406 28.424-98.022l-1.4-58.178 47.976 32.944c43.342 29.76 72.526 73.138 84.406 125.444 8.914 39.252 6.058 72.544 2.646 92.036 13.746 19.978 21.184 43.698 21.184 68.248zM620 378.068l-10.98-12.12 4.35-15.766c6.286-22.778 10.786-80.026-20.834-128.16-11.47 48.296-35.222 82.45-68.718 98.794l-13.946 6.804-13.558-7.544c-37.998-21.138-56.73-66.128-65.93-103.346-43.042 57.694-22.752 131.576-21.678 135.334l4.376 15.32-10.326 12.132c-9.368 11.008-14.528 25.028-14.528 39.478 0 33.632 27.362 60.992 60.992 60.992 15.788 0 30.772-6.030 42.19-16.982l20.59-19.744 20.588 19.744c11.42 10.95 26.404 16.982 42.192 16.982 33.632 0 60.994-27.362 60.994-60.992 0-15.162-5.6-29.698-15.774-40.926z" />
<glyph unicode="&#xe90b;" glyph-name="dental-care" d="M996.74 408.698c-26.133 29.672-70.359 35.094-102.867 12.609l-267.218-184.827h-59.828c20.867 58.726-23.008 120.234-84.812 120.234h-191.835c-57.195 0-108.609-31.828-134.179-83.070l-146.835-294.241c-7.398-14.828-1.375-32.836 13.453-40.234 14.82-7.398 32.836-1.383 40.234 13.445l146.835 294.241c15.351 30.758 46.187 49.859 80.492 49.859h191.835c16.547 0 30-13.508 30-30.117s-13.453-30.117-30-30.117h-116c-16.57 0-30-13.437-30-30 0-16.57 13.43-30 30-30h270.007c13.312 0-6.398-10.906 291.975 195.476 7.5 5.187 17.687 3.93 23.711-2.914 6.617-7.508 5.898-19-1.602-25.617l-325.436-287.303h-316.655c-11.375 0-21.766-6.43-26.844-16.601l-30-60.117c-7.398-14.828-1.383-32.844 13.445-40.242s32.844-1.375 40.234 13.453l21.719 43.508h309.444c7.312 0 14.375 2.672 19.859 7.516l333.944 294.803c32.273 28.492 35.375 77.953 6.922 110.257zM342.18 638.033c-6.539-89.273 39.469-173.234 118-217.132 8.812-4.922 11.812-3.812 55.836-3.812 16.57 0 30 13.43 30 30v120.101c0 16.601 13.461 30.117 30 30.117 16.547 0 30-13.508 30-30.117v-119.953c0-16.562 13.437-30 30-30 47.562 0 50.609-1.219 59.726 4.156 74.398 43.812 118.968 127.96 113.562 214.429-5.68 89.132 36.711 106.437 36.711 172.515 0 116.156-130.765 187.351-235.022 133.179-21.117-10.953-48.398-10.953-69.5 0-104.445 54.258-235.038-17.156-235.038-133.179 0-63.172 41.867-86.797 35.726-170.304zM513.844 888.258c38.484-19.969 86.297-19.969 124.796 0.008 64.359 33.437 147.374-8.766 147.374-79.929 0-44.523-43.070-74.726-36.594-176.304 3.844-61.461-26.359-121.359-77.453-154.796h-5.953v89.945c0 49.695-40.375 90.125-90 90.125-49.633 0-90-40.43-90-90.125v-90.093h-3.062c-54.734 33.648-85.593 92.968-80.937 156.554 7.094 96.484-35.562 132.031-35.562 174.695 0 71.234 83.070 113.335 147.39 79.922z" />
<glyph unicode="&#xe90c;" glyph-name="lips" d="M1012.266 667.5c-7.398 5.684-17.016 7.606-26.034 5.204-60.65-16.176-213.262-4.876-266.946 0.844-1.058 0.112-2.12 0.168-3.184 0.168-93.776 0-150.108-34.038-161.214-41.416l-42.888-23.39-42.886 23.394c-11.106 7.378-67.436 41.414-161.212 41.414-1.064 0-2.126-0.056-3.184-0.168-53.686-5.718-206.296-17.016-266.946-0.844-9.016 2.404-18.636 0.48-26.034-5.204-7.402-5.686-11.738-14.488-11.738-23.818 0-49.8 16.062-95.924 43.262-133.484 20.518-162.132 159.302-287.92 326.912-287.92h284.304c87.906 0 170.58 34.2 232.796 96.3 52.706 52.608 85.408 119.94 94.276 192.736 26.71 37.358 42.45 83.062 42.45 132.368 0 9.33-4.336 18.132-11.734 23.816zM654.48 282.348h-284.304c-108.832 0-202.79 64.86-245.28 157.95 30.98-15.792 66.020-24.72 103.106-24.742h568.014c37.398 0.024 72.72 9.1 103.894 25.148-42.434-93.288-136.532-158.356-245.43-158.356zM795.998 475.62h-567.978c-80.214 0.050-147.474 56.618-164.044 131.94 90.19-9.374 227.654 4.24 245.458 6.084 79.46-0.372 124.172-29.832 126.502-31.41 1.098-0.814 1.91-1.298 3.134-1.966l58.22-31.758c4.41-2.406 9.356-3.668 14.382-3.668h0.656c5.026 0 9.968 1.262 14.382 3.668l58.22 31.756c1.224 0.666 2.034 1.152 3.132 1.966 2.33 1.578 47.042 31.036 126.502 31.41 17.806-1.844 155.27-15.454 245.458-6.084-16.566-75.318-83.828-131.888-164.024-131.938z" />
<glyph unicode="&#xe90d;" glyph-name="tooth-11" d="M970.461 738.461c0 122.156-99.383 221.539-221.539 221.539-115.422 0-210.5-88.734-220.625-201.578-29.125-18.68-52.906-43.719-69.891-72.758-37.539 63.938-107.031 106.953-186.391 106.953h-62.18c-84.828 0-153.836-69.008-153.836-153.836v-170.383c0-65.313 32.906-126.305 86.734-162.336l42.352-211.664c1.211-6.086 4.313-11.633 8.859-15.852l145.031-134.656c8.609-7.992 21.141-10.125 31.906-5.43 10.773 4.695 17.734 15.328 17.734 27.078v148.477c0 49.695 27.016 95.039 69.844 118.891 42.828-23.852 69.844-69.195 69.844-118.891v-148.477c0-11.75 6.961-22.383 17.734-27.078 10.664-4.648 23.383-2.484 31.906 5.43l145.024 134.656c4.547 4.219 7.656 9.766 8.867 15.852l42.352 211.664c53.82 36.031 86.734 97.016 86.734 162.336v78.992c65.492 38.539 109.539 109.75 109.539 191.071zM801.844 523.265v-54.867c0-48.805-26.344-94.141-68.742-118.328-0.055-0.031-0.102-0.063-0.148-0.094-13.906-7.906-29.008-13.266-44.891-15.914l-48-8c-16.094-2.688-26.961-17.906-24.273-34 2.641-15.867 18.117-26.93 33.992-24.273l48 8c3.539 0.594 7.039 1.313 10.516 2.086l-32.508-162.524-88.406-82.078v80.742c0 77.617-45.969 147.836-117.109 178.883-7.477 3.266-16.148 3.266-23.625 0-71.141-31.047-117.109-101.266-117.109-178.883v-80.742l-88.399 82.078-32.516 162.524c3.484-0.773 6.984-1.492 10.516-2.086l48-8c15.883-2.656 31.352 8.398 34 24.273 2.68 16.094-8.188 31.313-24.281 34l-48 8c-15.883 2.648-30.984 8.008-44.891 15.914-0.047 0.031-0.094 0.063-0.141 0.094-42.406 24.188-68.75 69.524-68.75 118.328v170.383c0 52.25 42.508 94.758 94.758 94.758h62.18c86.524 0 156.906-70.391 156.906-156.906 0-16.313 13.227-29.539 29.539-29.539s29.539 13.227 29.539 29.539c0 42.031 16.711 81.469 45.406 110.43 0.008-0.016 0.016-0.031 0.023-0.039 23.258-97.438 111.039-170.102 215.492-170.102 17.891 0 35.281 2.148 51.945 6.172 0.336 0.055 0.672 0.094 0.977 0.172zM748.922 576c-89.578 0-162.461 72.883-162.461 162.461 0 89.586 72.883 162.461 162.461 162.461s162.461-72.875 162.461-162.461c0-89.578-72.875-162.461-162.461-162.461zM811.586 801.125c-11.531 11.531-30.234 11.531-41.773 0l-20.891-20.891-20.883 20.891c-11.539 11.531-30.242 11.531-41.773 0-11.539-11.539-11.539-30.242 0-41.773l20.883-20.891-20.883-20.891c-11.539-11.531-11.539-30.234 0-41.773 11.375-11.375 30.391-11.375 41.773 0l20.883 20.891 20.891-20.891c11.383-11.375 30.391-11.375 41.773 0 11.539 11.539 11.539 30.242 0 41.773l-20.891 20.891 20.891 20.891c11.539 11.531 11.539 30.234 0 41.773z" />
<glyph unicode="&#xe90e;" glyph-name="tooth-13" d="M961.22 779.266c-14.044 40.758-35.412 76.152-62.246 104.222s-59.152 48.838-95.124 60.37c-136.62 43.812-248.962-12.528-291.855-39.502-42.894 26.972-155.252 83.314-291.855 39.502-71.96-23.084-129.318-83.094-157.388-164.692-36.928-107.294-18.334-231.066 49.736-331.057 45.468-66.814 75.154-142.208 85.866-218.040 0.618-4.39 1.218-8.858 1.816-13.426 10.294-79.942 25.476-144.122 45.108-190.726 23.522-55.822 53.846-85.966 90.176-89.598 2.054-0.22 4.11-0.318 6.124-0.318 35.752 0 65.636 32.080 88.86 95.482 17.198 46.884 30.744 109.688 38.146 176.882 4.15 37.566 13.846 67.972 28.030 87.962 5.088 7.142 12.45 7.92 15.382 7.92s10.294-0.778 15.382-7.92c14.184-19.99 23.88-50.396 28.030-87.962 7.402-67.194 20.948-129.998 38.146-176.882 23.244-63.404 53.11-95.484 88.86-95.484 2.016 0 4.070 0.1 6.126 0.318 36.33 3.632 66.654 33.776 90.176 89.598 19.632 46.604 34.814 110.784 45.108 190.726 0.578 4.408 1.158 8.718 1.756 12.948 10.674 75.952 40.46 151.604 86.086 218.736 67.972 99.994 86.484 223.708 49.556 330.941zM862.168 481.965c-50.754-74.674-83.912-159.046-95.862-244.034-0.618-4.448-1.236-8.998-1.836-13.626-20.968-162.736-60.072-225.56-81.498-228.394-4.508 1.596-19.91 16.4-36.47 65.378-14.026 41.496-25.258 96.062-31.602 153.638-5.346 48.34-18.374 87.384-38.744 116.052-14.724 20.728-38.724 33.118-64.16 33.118s-49.438-12.39-64.16-33.118c-20.37-28.668-33.398-67.712-38.744-116.052-6.344-57.576-17.576-112.142-31.602-153.638-16.558-48.978-31.96-63.782-36.47-65.378-21.426 2.834-60.51 65.658-81.498 228.394-0.618 4.808-1.258 9.516-1.916 14.124-11.97 84.87-45.048 169-95.642 243.356-57.498 84.47-73.438 188.372-42.634 277.909 21.886 63.562 65.278 109.908 119.084 127.164 58.594 18.794 119.004 17.576 179.554-3.572 46.266-16.16 75.292-38.524 75.492-38.684l0.678-0.538 0.1-0.060 89.896-66.794-78.426-134.426 115.634-75.412 32.678 50.136-67.912 44.29 76.69 131.514-97.558 72.5c44.010 22.644 125.648 51.412 220.334 21.048 53.766-17.238 97.158-63.562 119.044-127.104 30.826-89.46 14.946-193.322-42.45-277.791z" />
<glyph unicode="&#xe90f;" glyph-name="dentist1" d="M684.476 293.512v422.6c53.778 13.47 93.732 62.194 93.732 120.086 0.002 68.266-55.536 123.802-123.798 123.802s-123.8-55.536-123.8-123.8c0-57.896 39.954-106.618 93.732-120.086v-422.658l-60.89-0.058 0.112-30.148c0.252-68.518 0.382-141.5 0.42-236.644 0.020-49.96 40.678-90.606 90.634-90.606 49.972 0 90.632 40.692 90.636 90.71 0.006 78.836-0.002 266.86-0.002 266.86l-60.776-0.058zM590.744 836.2c0 35.106 28.56 63.666 63.666 63.666s63.666-28.562 63.666-63.666c0-35.106-28.562-63.666-63.666-63.666-35.106 0-63.666 28.562-63.666 63.666zM623.798 233.322l61.326 0.058c0-15.954 0.002-37.046 0.002-60.218h-61.172c-0.044 20.83-0.096 40.77-0.156 60.16zM685.124 26.716c-0.002-16.864-13.686-30.584-30.504-30.584-16.812 0-30.496 13.682-30.502 30.498-0.012 30.942-0.034 59.532-0.068 86.398h61.076c0.002-31.628 0.002-62.56-0.002-86.312zM459.82 293.57l-60.162-0.056v479.020h-30.066c-35.106 0-63.666 28.562-63.666 63.666 0 35.106 28.558 63.666 63.664 63.666v60.134c-68.262 0-123.798-55.536-123.798-123.8 0-57.896 39.952-106.64 93.732-120.106v-422.638l-60.484-0.058 0.124-266.792c0.018-49.96 40.676-90.606 90.634-90.606 49.974 0 90.634 40.694 90.636 90.71 0.008 77.984-0.614 266.86-0.614 266.86zM339.202 233.322l60.678 0.058c0.048-15.95 0.108-37.046 0.17-60.218h-60.82l-0.028 60.16zM369.8-3.866c-16.812 0-30.496 13.68-30.502 30.498l-0.040 86.398h60.934c0.066-31.7 0.112-62.664 0.11-86.314 0.002-16.864-13.682-30.582-30.502-30.582z" />
<glyph unicode="&#xe910;" glyph-name="mirror" d="M577.82 494.134h-35.82v255.98c44.492 13.008 77.096 54.15 77.096 102.79 0 59.054-48.042 107.096-107.096 107.096s-107.096-48.042-107.096-107.096c0-48.64 32.604-89.782 77.096-102.79v-255.98h-35.82c-16.568 0-30-13.432-30-30v-498.134c0-16.568 13.432-30 30-30h131.64c16.568 0 30 13.432 30 30v498.134c0 16.57-13.432 30-30 30zM464.904 852.902c0 25.968 21.128 47.098 47.096 47.098s47.096-21.128 47.096-47.096c0-25.968-21.128-47.098-47.096-47.098s-47.096 21.128-47.096 47.096zM547.82-4h-71.64v438.134h71.64v-438.134z" />
<glyph unicode="&#xe911;" glyph-name="mouth" d="M994.062 477.969c-5.477 0-37.039 4.578-121.273 95.039-51.047 54.82-99.766 118.008-120.57 144.984l-0.945 1.227c-54.133 70.195-159.070 79.234-224.164 17.75l-15.133-14.297-15.133 14.297c-63.477 59.953-168.305 54.719-225.203-19.094-20.812-26.992-69.555-90.211-120.555-144.984-84.133-90.344-115.664-94.922-121.133-94.922-30.937 0-41.437-41.32-14.539-56.234 20.25-11.25 1.484 18.57 96.383-75.727 91.406-90.812 229.523-228.039 400.18-228.039 170.648 0 308.805 137.227 400.219 228.039 88.383 87.797 77.156 67.211 93.82 74.453 29.687 12.93 20.484 57.508-11.953 57.508zM320.203 682.586c31.609 40.992 95.039 48.922 135.43 10.766l35.742-33.758c11.562-10.922 29.641-10.922 41.203 0l35.734 33.758c40.281 38.047 103.742 30.336 135.437-10.773l0.945-1.227c72.109-93.508 130.711-160.406 178.742-203.383h-742.89c60.945 54.539 129.414 139.461 179.656 204.617zM511.976 177.961c-162.945 0-302.695 157.711-387.711 240.008h775.468c-84.773-82.055-224.719-240.008-387.758-240.008z" />
<glyph unicode="&#xe912;" glyph-name="tooth-22" d="M935.079 960h-315.078c-16.313 0-29.539-13.227-29.539-29.539v-128c0-5.93 0.172-11.859 0.422-17.781-40.297-11.234-76.774-34.078-104.656-65.984-9.016-10.313-16.969-21.391-23.797-33.070-37.539 63.961-107.047 106.992-186.414 106.992h-62.18c-84.828 0-153.836-69.008-153.836-153.836v-170.383c0-65.313 32.914-126.305 86.734-162.336l42.352-211.664c1.211-6.086 4.313-11.633 8.867-15.852l145.024-134.656c8.609-7.992 21.141-10.125 31.906-5.43 10.773 4.695 17.734 15.328 17.734 27.078v148.477c0 49.695 27.016 95.039 69.844 118.891 42.828-23.852 69.844-69.195 69.844-118.891v-148.477c0-11.75 6.961-22.383 17.734-27.078 10.664-4.648 23.383-2.484 31.906 5.43l145.031 134.656c4.547 4.219 7.648 9.766 8.867 15.852l42.344 211.664c53.828 36.031 86.734 97.016 86.734 162.336v61.289c21.523 25.539 40.078 53.586 54.992 83.43 29.25 58.484 44.703 123.953 44.703 189.344v128c-0.008 16.313-13.227 29.539-29.539 29.539zM805.844 468.398c0-48.805-26.344-94.141-68.75-118.328-0.047-0.031-0.094-0.063-0.141-0.094-13.906-7.906-29.008-13.266-44.891-15.914l-48-8c-16.094-2.688-26.961-17.906-24.281-34 2.648-15.867 18.117-26.93 34-24.273l48 8c3.539 0.594 7.031 1.313 10.516 2.086l-32.516-162.524-88.399-82.078v80.742c0 77.617-45.969 147.836-117.109 178.883-7.477 3.258-16.148 3.258-23.633 0-71.141-31.047-117.102-101.266-117.102-178.883v-80.742l-88.399 82.078-32.516 162.524c3.477-0.773 6.977-1.492 10.516-2.086l47.992-8c15.883-2.656 31.352 8.406 34 24.273 2.68 16.094-8.188 31.313-24.273 34l-48 8c-15.883 2.648-30.984 8.008-44.891 15.914-0.047 0.031-0.094 0.063-0.141 0.094-42.414 24.188-68.75 69.531-68.75 118.328v170.383c0 52.25 42.508 94.758 94.75 94.758h62.188c86.516 0 156.906-70.391 156.906-156.906 0-16.313 13.227-29.539 29.539-29.539s29.539 13.227 29.539 29.539c0 67.5 43.781 126.836 105.664 148.313 0.023-0.047 0.055-0.102 0.078-0.156 7.242-38.727 19.813-76.469 37.414-111.672 29.242-58.484 72.344-110.133 124.656-149.367 10.383-7.789 25.063-7.789 35.445 0 3.547 2.664 7.047 5.391 10.508 8.164 0.023 0.016 0.055 0.023 0.078 0.047zM905.539 802.461c0-106.469-47.469-208.485-128-277.258-80.539 68.774-128 170.789-128 277.258v98.461h256zM727.688 743.383h20.313v-19.688c0-16.313 13.227-29.539 29.539-29.539s29.539 13.227 29.539 29.539v19.688h20.305c16.313 0 29.539 13.227 29.539 29.539s-13.227 29.539-29.539 29.539h-20.305v19.695c0 16.313-13.227 29.539-29.539 29.539s-29.539-13.227-29.539-29.539v-19.695h-20.313c-16.313 0-29.539-13.227-29.539-29.539s13.227-29.539 29.539-29.539z" />
<glyph unicode="&#xe913;" glyph-name="tooth-12" d="M944.458 785.642c-27.096 78.658-82.454 136.54-151.874 158.802-130.918 41.986-238.724-11.468-280.581-37.63-41.86 26.164-149.664 79.616-280.585 37.63-69.454-22.27-124.82-80.188-151.906-158.896-35.574-103.38-17.668-222.608 47.902-318.943 3.486-5.12 7.020-10.524 10.502-16.060l8.818-14.012h730.567l8.816 14.030c3.528 5.614 7.096 11.080 10.612 16.25l0.002 0.002c65.474 96.328 83.316 215.516 47.728 318.827zM847.146 500.523c-0.904-1.328-1.808-2.674-2.714-4.034h-664.857c-0.868 1.3-1.734 2.582-2.598 3.854-54.984 80.782-70.226 180.106-40.772 265.693 20.872 60.656 62.248 104.872 113.52 121.312 55.952 17.942 113.66 16.802 171.51-3.394 44.238-15.444 72.008-36.82 72.206-36.974l18.558-14.626 18.556 14.628c1.070 0.842 108.448 83.738 243.716 40.368 51.248-16.434 92.614-60.624 113.496-121.236 29.466-85.532 14.278-184.82-40.62-265.591zM172.958 373.331l28.916-45.944c30.686-48.762 50.128-100.988 57.788-155.232 0.48-3.404 0.95-6.884 1.408-10.438 18.564-144.022 56.204-219.87 111.878-225.434 33.518-3.35 60.838 23.184 81.244 78.86 13.644 37.228 24.39 87.012 30.26 140.188 3.954 35.822 13.5 55.612 20.816 65.908 2.144 3.018 5.142 3.468 6.74 3.468 1.596 0 4.594-0.452 6.74-3.47 7.312-10.292 16.86-30.078 20.816-65.906 5.868-53.172 16.614-102.96 30.26-140.188 19.264-52.554 44.696-79.142 75.662-79.142 1.838 0 3.702 0.094 5.58 0.282 55.672 5.566 93.314 81.412 111.88 225.434 0.442 3.426 0.894 6.78 1.356 10.064 7.64 54.306 27.11 106.664 57.87 155.624l28.854 45.926h-678.067zM704.923 180.142c-0.494-3.51-0.978-7.094-1.448-10.756-16.888-131.022-46.152-167.65-56.388-172.786-12.018 10.226-37.014 66.384-47.93 165.31-4.308 39.024-14.918 70.67-31.534 94.054-12.766 17.972-33.558 28.7-55.616 28.7s-42.848-10.728-55.616-28.7c-16.616-23.388-27.226-55.032-31.534-94.054-10.918-98.934-35.914-155.088-47.93-165.312-10.234 5.134-39.5 41.76-56.388 172.79-0.49 3.798-0.994 7.516-1.504 11.15-6.472 45.844-20.168 90.344-40.842 132.84h467.671c-20.752-42.664-34.478-87.294-40.942-133.236z" />
<glyph unicode="&#xe914;" glyph-name="apple" d="M964.996 543.702c-15.25 44.842-37.778 82.768-66.96 112.722-31.43 32.262-69.834 54.524-114.144 66.17-51.272 13.476-105.898 11.884-157.967-4.602-27.426-8.682-54.23-21.534-79.562-37.974 0.126 0.874 0.248 1.766 0.37 2.66 2.496 10.254 5.782 21.040 10.116 31.912 25.854 64.858 76.478 103.33 150.465 114.348l-8.828 59.266c-77.012-11.47-126.616-46.012-158.583-85.078-5.18 17.474-12.718 34.746-23.418 50.88-58.174 87.718-183.549 102.626-188.857 103.22l-24.906 2.776-7.132-24.026c-1.464-4.936-34.042-117.738 15.636-204.425-25.878 0.566-51.646-2.394-76.616-8.958-86.272-22.674-147.837-83.51-178.035-175.931-26.348-80.64-26.728-183.589-1.066-289.887 32.56-134.873 96.452-236.609 179.911-286.465 56.804-33.934 121.858-42.666 188.127-25.25 30.484 8.012 59.222 21.032 85.704 38.808 26.482-17.774 55.216-30.796 85.702-38.808 23.026-6.052 45.928-9.060 68.428-9.060 44.846 0 88.108 11.946 127.618 35.548 83.722 50.010 147.067 148.959 178.367 278.621 25.554 105.868 24.002 210.111-4.37 293.535zM347.449 892.444c33.502-8.276 90.31-28.144 119.102-71.554 26.352-39.736 25.588-92.744 21.116-127.592-0.762-3.294-1.468-6.544-2.104-9.726-33.584 8.374-89.828 28.258-118.428 71.384-28.994 43.718-25.164 103.502-19.686 137.487zM911.12 264.233c-27.492-113.882-81.066-199.557-150.849-241.243-45.838-27.382-96.328-34.108-150.087-19.976-29.738 7.816-57.45 21.752-82.368 41.422l-18.562 14.652-18.562-14.652c-24.918-19.67-52.632-33.606-82.37-41.422-51.058-13.416-98.892-7.114-142.169 18.738-34.248 20.458-64.902 52.494-91.11 95.22-26.416 43.068-47.036 94.834-61.286 153.865-23.090 95.646-23.168 186.993-0.224 257.217 23.9 73.148 69.76 119.104 136.309 136.591 49.678 13.056 176.465 6.25 238.433-74.068l20.976-20.572 20.978 20.572c69.876 68.528 156.787 95.524 238.433 74.068 83.428-21.924 121.968-88.362 139.607-140.233 24.764-72.812 25.772-165.213 2.85-260.179zM665.633 452.212c-19.966 19.97-46.518 30.97-74.762 30.97s-54.796-10.998-74.766-30.968l-6.964-6.966-6.966 6.964c-19.97 19.97-46.52 30.968-74.764 30.968s-54.796-10.998-74.764-30.968c-19.97-19.97-30.97-46.522-30.97-74.766s11-54.796 30.894-74.688l156.009-157.131 157.053 157.055c19.97 19.97 30.97 46.522 30.97 74.766-0.002 28.244-11 54.796-30.972 74.764zM623.268 345.052l-114.534-114.534-113.718 114.536c-8.654 8.654-13.42 20.158-13.42 32.396s4.766 23.742 13.42 32.396c8.654 8.654 20.158 13.418 32.396 13.418s23.744-4.766 32.396-13.418l49.334-49.334 49.332 49.334c8.654 8.654 20.16 13.42 32.398 13.42s23.742-4.766 32.396-13.42c8.654-8.654 13.42-20.158 13.42-32.396s-4.766-23.744-13.42-32.398z" />
<glyph unicode="&#xe915;" glyph-name="dental-floss-1" d="M389.632 578.5c-110.556 0-200.502-89.946-200.502-200.502s89.944-200.5 200.502-200.5c110.558 0 200.5 89.944 200.5 200.5s-89.942 200.502-200.5 200.502zM389.632 237.498c-77.472 0-140.502 63.028-140.502 140.5s63.028 140.502 140.502 140.502 140.5-63.030 140.5-140.502c0.002-77.472-63.026-140.5-140.5-140.5zM389.632 484c-58.45 0-106.002-47.552-106.002-106.002s47.552-106 106.002-106c58.45 0 106 47.55 106 106 0.002 58.45-47.55 106.002-106 106.002zM389.632 331.998c-25.366 0-46.002 20.634-46.002 46s20.636 46.002 46.002 46.002c25.366 0 46-20.636 46-46.002 0.002-25.366-20.634-46-46-46zM1012.958 175.056v0c-46.946-0.002-85.14 38.192-85.14 85.138v81.252c0 88.232-64.334 161.71-148.554 176.020v28.084c0 205.12-166.878 372-372 372h-35.264c-205.122 0-372-166.878-372-372v-567.102h779.266v477.698c50.89-13.32 88.554-59.688 88.554-114.698v-81.252c0-80.032 65.11-145.14 145.14-145.14h11.040v60h-11.042zM719.266 38.45h-659.266v421.55h45.196c-7.522-26.050-11.564-53.562-11.564-82.002 0-163.214 132.786-296 296.002-296s296 132.786 296 296c0 28.44-4.042 55.952-11.564 82.002h45.196v-421.55zM153.632 377.998c0 130.132 105.87 236.002 236 236.002s236.002-105.87 236.002-236.002c0-130.13-105.87-236-236-236s-236.002 105.87-236.002 236zM719.266 520h-69.984c-50.35 91.7-147.856 154-259.648 154s-209.3-62.3-259.65-154h-69.984v25.55c0 172.038 139.962 312 312 312h35.266c172.038 0 312-139.962 312-312v-25.55z" />
<glyph unicode="&#xe916;" glyph-name="hook" d="M577.82 494.134h-35.82v243.862c0 7.136 2.552 14.056 7.186 19.482l28.342 33.192c30.708 35.96 28.214 89.964-5.674 122.942l-38.932 37.888c-11.874 11.556-30.868 11.296-42.422-0.576-11.556-11.874-11.298-30.866 0.576-42.422l38.932-37.89c11.296-10.992 12.126-28.994 1.892-40.98l-28.344-33.192c-13.9-16.282-21.556-37.036-21.556-58.444v-243.862h-35.82c-16.568 0-30-13.432-30-30v-498.134c0-16.568 13.432-30 30-30h131.64c16.568 0 30 13.432 30 30v498.134c0 16.57-13.432 30-30 30zM547.82-4h-71.64v438.134h71.64v-438.134z" />
<glyph unicode="&#xe917;" glyph-name="tooth-3" d="M1008.281 867.953l-128.477 68.016c-29.695 15.727-63.148 24.031-96.75 24.031h-482.75c-46.148 0-83.688-37.547-83.688-83.695 0-41.102 29.797-75.359 68.922-82.359v-89.945c0-38.008 30.922-68.922 68.922-68.922h315.078c38 0 68.922 30.914 68.922 68.922v88.617h44.594c24 0 47.891-5.938 69.102-17.164l128.484-68.023c9.070-4.797 20.266-4.492 29.055 0.805 8.875 5.344 14.305 14.945 14.305 25.305v108.305c0 10.945-6.047 20.992-15.719 26.109zM679.383 704c0-5.43-4.414-9.844-9.844-9.844h-59.078v29.539c0 16.313-13.227 29.539-29.539 29.539s-29.539-13.227-29.539-29.539v-29.539h-78.766v29.539c0 16.313-13.227 29.539-29.539 29.539s-29.539-13.227-29.539-29.539v-29.539h-59.078c-5.43 0-9.844 4.414-9.844 9.844v88.617h334.766zM964.922 782.602l-85.117 45.063c-29.695 15.719-63.148 24.031-96.75 24.031h-482.75c-13.57 0-24.609 11.039-24.609 24.609 0 13.578 11.039 24.617 24.609 24.617h482.75c24 0 47.891-5.938 69.102-17.164l112.766-59.695zM930.68 280.617c-16.266 0-31.141 8.898-38.828 23.227-18.414 34.297-53.453 55.602-91.445 55.602h-36.453c2.078 9.242 3.18 18.766 3.18 28.445v103.070c0 57.75-46.984 104.734-104.734 104.734h-37.609c-45.875 0-86.742-21.82-112.789-55.609-26.047 33.789-66.922 55.609-112.789 55.609h-37.617c-57.742 0-104.727-46.984-104.727-104.734v-103.070c0-9.68 1.094-19.203 3.18-28.445h-36.461c-37.984 0-73.023-21.305-91.438-55.602-7.688-14.328-22.57-23.227-38.828-23.227-51.453 0-93.32-41.867-93.32-93.32v-221.758c0-16.313 13.227-29.539 29.539-29.539h964.922c16.313 0 29.539 13.227 29.539 29.539v221.758c0 51.453-41.867 93.32-93.32 93.32zM315.945 490.961c0 25.172 20.477 45.656 45.648 45.656h37.617c45.906 0 83.25-37.344 83.25-83.25 0-16.313 13.227-29.539 29.539-29.539s29.539 13.227 29.539 29.539c0 45.906 37.344 83.25 83.25 83.25h37.617c25.172 0 45.648-20.484 45.648-45.656v-103.070c0-25.344-13.68-48.883-35.695-61.445-0.031-0.016-0.055-0.031-0.078-0.047-7.219-4.102-15.055-6.883-23.313-8.258l-13.828-2.313c-16.094-2.68-26.961-17.906-24.273-33.992 2.648-15.883 18.117-26.93 34-24.281l3.469 0.578-15.57-77.828-31.102-28.883v22.086c0 51.594-30.563 98.273-77.844 118.906-7.484 3.266-16.156 3.266-23.633 0-47.289-20.633-77.844-67.313-77.844-118.906v-22.086l-31.102 28.883-15.57 77.828 3.469-0.578c15.883-2.648 31.344 8.406 34 24.281 2.68 16.086-8.188 31.305-24.273 33.992l-13.836 2.313c-8.258 1.375-16.094 4.148-23.305 8.25-0.031 0.016-0.055 0.039-0.078 0.055-22.023 12.555-35.703 36.102-35.703 61.445zM964.922-4.922h-905.844v192.219c0 18.883 15.359 34.242 34.242 34.242 38.063 0 72.883 20.828 90.883 54.359 8.102 15.094 23.195 24.469 39.383 24.469h67.266l0.078-0.078c5.867-6.43 12.406-12.305 19.555-17.484l24.695-123.453c1.219-6.086 4.32-11.625 8.867-15.852l87.734-81.453c8.609-7.992 21.133-10.125 31.906-5.43 10.766 4.695 17.727 15.328 17.727 27.078v89.813c0 1.477 0.047 2.938 0.141 4.391 1.211 19.625 10.555 37.594 25.328 49.891 1.648 1.375 3.336 2.695 5.117 3.922 1.781-1.227 3.469-2.547 5.117-3.922 14.773-12.305 24.117-30.266 25.328-49.891 0.094-1.453 0.141-2.922 0.141-4.391v-89.813c0-11.75 6.961-22.383 17.727-27.078 10.641-4.641 23.406-2.469 31.906 5.43l87.734 81.453c4.547 4.227 7.648 9.766 8.867 15.852l24.695 123.453c7.148 5.18 13.688 11.055 19.555 17.484l0.078 0.078h67.266c16.188 0 31.281-9.375 39.383-24.469 18-33.531 52.82-54.359 90.883-54.359 18.883 0 34.242-15.359 34.242-34.242zM796.344 555.117l19.695-19.695c11.375-11.383 30.391-11.383 41.773 0 11.531 11.539 11.531 30.234 0 41.773l-19.695 19.695c-11.531 11.531-30.234 11.531-41.773 0-11.539-11.539-11.539-30.242 0-41.773zM207.961 535.422l19.695 19.695c11.531 11.531 11.531 30.234 0 41.773-11.531 11.531-30.242 11.531-41.773 0l-19.695-19.695c-11.531-11.539-11.531-30.234 0-41.773 11.383-11.383 30.398-11.383 41.773 0zM185.883 653.578c11.383-11.383 30.391-11.383 41.773 0 11.539 11.531 11.539 30.234 0 41.773l-19.695 19.688c-11.531 11.539-30.234 11.539-41.773 0-11.531-11.531-11.531-30.234 0-41.773zM838.117 653.578l19.695 19.688c11.531 11.539 11.531 30.242 0 41.773-11.539 11.539-30.242 11.539-41.773 0l-19.695-19.688c-11.539-11.539-11.539-30.242 0-41.773 11.383-11.383 30.391-11.383 41.773 0z" />
<glyph unicode="&#xe918;" glyph-name="toothpaste" d="M475.172 556.016c-40.484-40.484-40.484-106.359 0-146.844 40.578-40.578 106.258-40.586 146.844 0 40.484 40.484 40.484 106.359 0 146.844s-106.359 40.484-146.844 0zM579.594 451.602c-17.133-17.133-44.867-17.133-62 0-17.086 17.086-17.086 44.898 0 61.992 17.094 17.086 44.906 17.094 62 0 17.086-17.094 17.086-44.906 0-61.992zM1015.219 864.344l-84.883 84.875c-11.703 11.703-30.711 11.711-42.422 0l-78.688-78.703c-208.242-46.242-207.008-43.492-216.5-51.516-142.969-119.461-463.805-387.547-581.969-486.313-13.516-11.289-14.43-31.773-1.977-44.227l345.68-345.68c12.445-12.445 32.93-11.547 44.227 1.977 520.313 622.547 490.235 584.172 492.578 594.703l45.25 203.774 78.703 78.68c11.703 11.703 11.711 30.711 0 42.43zM844.54 605.828l-172.711 172.711 142.867 31.734 61.57-61.57zM373.688 8.406l-299.281 299.281c14.078 11.773 29.602 24.742 46.234 38.648l291.688-291.688c-13.906-16.641-26.867-32.156-38.641-46.242zM450.961 100.867l-284.094 284.094c146.281 122.242 295.024 246.524 443.282 370.406l211.219-211.219c-76.977-92.117-250.375-299.641-370.406-443.282zM909.126 800.696l-42.438 42.438 42.438 42.445 42.445-42.445z" />
<glyph unicode="&#xe919;" glyph-name="dentist-1" d="M853.932 890.528c-46.922 46.026-108.676 70.706-174.024 69.424-59.102-1.14-115.554-23.888-158.956-64.052-5.104-4.72-12.8-4.722-17.904 0-43.402 40.166-99.852 62.912-158.952 64.052-65.354 1.292-127.102-23.396-174.026-69.422-46.28-45.394-71.766-105.65-71.766-169.67 0-109.81 71.398-231.086 74.436-236.196l8.748-14.704h69.316l24.366-69.54h-57.030v-60.176h78.112l21.084-60.176h-48.046v-60.176h69.13l21.084-60.176h-42.072v-60.176h63.156l33.46-95.5c14.506-41.402 52.294-68.040 96.41-68.040 0.242 0 0.494 0 0.738 0.002 44.42 0.298 82.18 27.508 96.2 69.322l31.592 94.216h67.578v60.176h-47.4l20.178 60.176h75.362v60.176h-55.186l20.176 60.176h86.156v60.176h-65.972l23.318 69.542h78.19l8.96 13.11c3.078 4.502 75.348 111.696 75.348 237.792 0 64.014-25.488 124.268-71.764 169.664zM550.344 24.454c-6.942-20.7-24.982-28.18-39.554-28.278-14.606-0.19-32.728 7.144-39.952 27.76l-26.49 75.602h131.17l-25.174-75.084zM595.7 159.714h-172.434l-21.084 60.176h213.694l-20.176-60.176zM636.056 280.066h-254.956l-21.084 60.176h296.216l-20.176-60.176zM676.412 400.416h-337.478l-24.366 69.542h385.162l-23.318-69.542zM808.73 530.136h-592.394c-6.372 12.042-15.698 30.738-25.044 53.288-21.464 51.798-32.81 99.322-32.81 137.436 0 47.726 19.082 92.724 53.728 126.71 35.292 34.616 81.72 53.158 130.728 52.218 44.332-0.854 86.678-17.922 119.242-48.056 27.938-25.85 71.704-25.854 99.644 0 32.562 30.134 74.91 47.2 119.244 48.056 48.99 0.96 95.434-17.6 130.726-52.218 34.646-33.986 53.726-78.982 53.726-126.706 0-83.894-39.412-160.87-56.79-190.728z" />
<glyph unicode="&#xe91a;" glyph-name="dentist2" d="M649.84 960h-65.934c-29.024 0-57.952-3.368-86.2-10.036-13.542-3.196-23.11-15.284-23.11-29.198v-12.516h-99.588c-16.154 0-30.054-12.414-30.814-28.55-0.812-17.228 12.916-31.45 29.966-31.45h100.436v-12.518c0-13.914 9.566-26 23.108-29.196l18.646-4.4-74.494-359.862v-476.274c0-16.568 13.432-30 30-30h125.864c16.568 0 30 13.432 30 30v474.924l32.17 357.336c11.618 4.136 19.95 15.2 19.95 28.238v103.502c0 16.568-13.432 30-30 30zM567.84 444.962c-0.080-0.894-0.122-1.792-0.122-2.69v-446.272h-65.864v443.174l74.612 357.326h23.022l-31.648-351.538zM619.84 856.5h-72.636l-12.608 2.976v37.548l12.608 2.976h72.636v-43.5z" />
<glyph unicode="&#xe91b;" glyph-name="mouthwash" d="M933.962 418.358h-269.961v60.695h30c16.57 0 30 13.43 30 30v100.313c0 60.703-49.383 110.086-110.086 110.086h-69.914v212.547c0 16.57-13.43 30-30 30h-240c-16.57 0-30-13.43-30-30v-212.547h-69.914c-60.703 0-110.086-49.383-110.086-110.086v-100.313c0-16.57 13.43-30 30-30h30v-240.672h-30c-16.57 0-30-13.438-30-30v-100.227c0-60.75 49.344-110.18 110-110.18h337.805l2.266-32.086c1.109-15.711 14.18-27.891 29.93-27.891h360.001c15.742 0 28.805 12.172 29.922 27.867l29.961 420.368c1.242 17.367-12.539 32.125-29.922 32.125zM894.477 256.303c-52.844-8.945-57.602-37.969-104.711-37.969-53.039 0-56.813 40.086-131.375 40.086-57.719 0-77.453-26.219-102.313-35.5l-9.563 135.446h355.235zM304 902h180v-182.547h-180zM123.999 609.367c0 27.617 22.469 50.086 50.086 50.086h439.821c27.625 0 50.094-22.469 50.094-50.086v-70.313h-540.001zM183.999 479.054h420.001v-60.695h-89.68c-17.406 0-31.148-14.781-29.93-32.109l10.445-147.875h-310.837zM173.999 57.975c-27.57 0-50 22.508-50 50.18v70.219h375.071l8.5-120.399zM571.953-2.002l-11.563 163.789c47.82 10.633 52.727 36.633 98 36.633 53.039 0 56.805-40.086 131.367-40.086 56.203 0 76.695 24.977 100.203 34.688l-13.898-195.024z" />
<glyph unicode="&#xe91c;" glyph-name="tooth-4" d="M955.891 727.609c-1.492 11.188-9.234 20.539-19.938 24.102-64.188 21.398-111.766 73.5-127.266 139.367l-10.859 46.148c-3.141 13.344-15.047 22.773-28.75 22.773-13.711 0-25.617-9.43-28.758-22.773l-10.852-46.148c-9.117-38.734-29.336-72.695-57.492-98.461h-13.070c-79.391 0-148.914-43.055-186.445-107.047-37.531 63.992-107.055 107.047-186.445 107.047h-62.18c-84.828 0-153.836-69.008-153.836-153.836v-170.383c0-65.313 32.914-126.305 86.734-162.336l42.352-211.664c1.211-6.086 4.313-11.633 8.859-15.852l145.031-134.656c8.609-7.992 21.141-10.125 31.906-5.43 10.773 4.695 17.734 15.328 17.734 27.078v148.477c0 49.695 27.016 95.039 69.844 118.891 42.828-23.852 69.844-69.195 69.844-118.891v-148.477c0-11.75 6.961-22.383 17.734-27.078 10.656-4.648 23.383-2.484 31.906 5.43l145.024 134.656c4.547 4.219 7.648 9.766 8.867 15.852l42.352 211.664c53.82 36.031 86.734 97.016 86.734 162.336v170.383c0 4.383-0.227 8.766-0.602 13.133 5.32 4.453 10.859 8.656 16.664 12.523l52.016 34.68c9.383 6.258 14.391 17.313 12.891 28.492zM727.578 765.008c16.828 18.422 30.805 39.258 41.5 61.672 10.688-22.414 24.672-43.25 41.492-61.672 16.375-17.93 35.258-33.383 55.945-45.883l-8.297-5.531c-38.797-25.859-69.656-62.102-89.141-104.117-19.492 42.016-50.352 78.258-89.141 104.117l-8.305 5.531c20.688 12.508 39.578 27.953 55.945 45.883zM747.102 350.070c-0.055-0.031-0.094-0.063-0.141-0.094-13.906-7.906-29.008-13.266-44.898-15.914l-48-8c-16.086-2.688-26.961-17.906-24.273-34 2.641-15.875 18.117-26.93 33.992-24.273l48 8c3.539 0.594 7.039 1.313 10.516 2.086l-32.516-162.524-88.399-82.078v80.742c0 77.617-45.969 147.836-117.109 178.883-7.477 3.266-16.148 3.266-23.625 0-71.141-31.047-117.109-101.266-117.109-178.883v-80.742l-88.399 82.078-32.516 162.524c3.484-0.773 6.984-1.492 10.516-2.086l48-8c15.883-2.656 31.352 8.398 33.992 24.273 2.688 16.094-8.18 31.313-24.273 34l-48 8c-15.883 2.648-30.992 8.008-44.898 15.922-0.047 0.023-0.094 0.055-0.133 0.086-42.406 24.18-68.75 69.524-68.75 118.328v170.383c0 52.25 42.508 94.758 94.758 94.758h62.18c86.524 0 156.906-70.391 156.906-156.906 0-16.313 13.227-29.539 29.539-29.539s29.539 13.227 29.539 29.539c0 59.227 32.992 110.899 81.555 137.602 0.016-0.047 0.039-0.070 0.055-0.109 2.070-6.023 6.047-11.344 11.547-15.008l52.016-34.68c37-24.672 64.586-61.664 77.664-104.18l16.008-52.023c3.813-12.391 15.266-20.852 28.234-20.852s24.414 8.461 28.234 20.852l16 52.023c0.789 2.563 1.641 5.109 2.531 7.633v-99.492c0-48.805-26.344-94.141-68.742-118.328z" />
<glyph unicode="&#xe91d;" glyph-name="tooth-pliers" d="M813.148 45.522l-174.718 434.346c15.914 23.988 25.214 52.726 25.214 83.608 0 3.85-0.192 7.654-0.476 11.434l134.938 184.608-146.54 200.482-130.17-95.122 77.016-105.36-38.228-52.288c-15.15 5.090-31.342 7.894-48.186 7.894s-33.036-2.802-48.186-7.894l-38.228 52.288 77.016 105.36-130.168 95.122-146.54-200.482 134.938-184.608c-0.284-3.78-0.476-7.584-0.476-11.434 0-30.882 9.3-59.62 25.214-83.608l-174.712-434.328c-7.958-19.75-7.75-41.418 0.59-61.008 8.338-19.584 23.806-34.754 43.556-42.712 9.632-3.882 19.722-5.82 29.806-5.82 10.588 0 21.17 2.136 31.204 6.408 19.594 8.338 34.77 23.808 42.734 43.574l153.25 380.95 153.26-380.966c7.96-19.75 23.134-35.218 42.728-43.558 10.036-4.272 20.614-6.408 31.204-6.408 10.082 0 20.176 1.94 29.806 5.82 19.75 7.96 35.218 23.128 43.556 42.712 8.342 19.592 8.552 41.258 0.598 60.99zM638.536 876.21l85.298-116.692-83.896-114.78c-7.656 12.008-16.94 22.872-27.562 32.274l60.318 82.502-67.496 92.334 33.338 24.362zM384.064 644.74l-83.896 114.778 85.298 116.692 33.338-24.362-67.496-92.33 60.318-82.502c-10.622-9.402-19.908-20.266-27.562-32.276zM303.122 8.378c-4.072-10.102-15.602-15.010-25.706-10.94-4.896 1.97-8.728 5.73-10.794 10.584-2.064 4.848-2.116 10.212-0.138 15.12l165.554 411.56c11.132-6.938 23.214-12.474 36.016-16.36l-164.932-409.964zM420.318 563.476c0 50.554 41.128 91.684 91.682 91.684s91.682-41.13 91.682-91.684c0-50.554-41.128-91.682-91.682-91.682s-91.682 41.128-91.682 91.682zM757.38 8.026c-2.064-4.854-5.898-8.612-10.794-10.584-10.116-4.076-21.638 0.838-25.7 10.924l-164.932 409.984c12.8 3.884 24.884 9.422 36.012 16.358l165.56-411.578c1.968-4.892 1.918-10.258-0.146-15.104z" />
<glyph unicode="&#xe91e;" glyph-name="appointment" d="M981.386 377.565c-15.604 45.292-47.788 78.722-88.304 91.714-47.752 15.316-90.124 8.078-120.52-2.96l0.012 440.001h-164.29v53.68h-59.998v-53.678h-291.535v53.678h-60v-53.678h-164.288v-773.298h529.907c3.868-12.228 6.736-24.636 8.49-37.066 0.3-2.126 0.594-4.298 0.878-6.51 12.752-98.916 39.268-149.030 81.058-153.206 1.632-0.162 3.228-0.242 4.8-0.242 53.54 0.006 71.966 93.004 78.208 149.572 1.442 13.050 4.044 22.204 6.76 28.554 2.714-6.352 5.316-15.504 6.758-28.554 6.242-56.57 24.658-149.58 78.206-149.572 1.568 0 3.172 0.080 4.798 0.242 41.796 4.178 68.312 54.29 81.062 153.206 0.276 2.142 0.558 4.242 0.846 6.292 5.028 35.72 19.062 71.338 40.59 103.008 36.638 53.898 46.568 120.744 26.562 178.816zM92.462 846.322h104.29v-38.934h59.998v38.934h291.537v-38.934h59.998v38.934h104.292v-140.104h-620.115v140.104zM530.379 198.635c1.264-1.856 2.496-3.726 3.706-5.61h-441.623v453.193h620.103v-179.894c-30.396 11.036-72.762 18.274-120.518 2.96-40.536-12.998-72.726-46.448-88.324-91.768-19.996-58.106-10.030-124.978 26.656-178.88zM905.208 232.479c-26.66-39.22-44.082-83.614-50.382-128.378-0.32-2.28-0.63-4.606-0.938-6.978-6.798-52.744-16.892-80.606-23.988-93.4-7.006 15.078-16.182 45.312-20.94 88.434-2.952 26.75-10.372 48.65-22.056 65.092-10.182 14.328-26.758 22.882-44.34 22.88-17.584 0-34.158-8.554-44.334-22.88-11.684-16.442-19.106-38.344-22.056-65.092-4.76-43.116-13.934-73.354-20.94-88.434-7.096 12.794-17.19 40.658-23.99 93.408-0.318 2.468-0.642 4.884-0.976 7.234-6.308 44.694-23.698 88.966-50.284 128.030-26.096 38.34-33.394 85.292-19.524 125.596 9.378 27.256 27.57 46.996 49.908 54.16 62.3 19.976 111.704-17.15 113.626-18.622l18.122-15.388 18.872 15.272c2.072 1.59 51.47 38.716 113.778 18.74 22.328-7.16 40.516-26.888 49.896-54.126 13.874-40.282 6.602-87.216-19.454-125.548zM194.514 563.969h59.998v-59.998h-59.998v59.998zM313.193 563.969h59.998v-59.998h-59.998v59.998zM431.851 563.969h59.998v-59.998h-59.998v59.998zM550.507 563.969h59.998v-59.998h-59.998v59.998z" />
<glyph unicode="&#xe91f;" glyph-name="dentist-21" d="M935.788 960v-60.11h27.776v-85.866h-129.872l-74.26-74.262-42.676 42.678-538.101-546.793 42.338-42.338-65.366-65.368-22.472 1.772c-34.12 2.682-68.124-9.092-93.268-32.332-25.142-23.238-39.562-56.202-39.562-90.44v-70.944h60.11v70.944c0 17.782 7.194 34.226 20.252 46.296 13.062 12.070 30.012 17.942 47.746 16.55l50.1-3.95 84.966 84.964 42.676-42.678 538.101 546.795-42.338 42.338 56.654 56.656h165.086v206.088h-87.89zM305.833 193.479l-42.508 42.508 46.786 47.544 42.508-42.508-46.786-47.544zM394.783 283.865l-42.508 42.508 37.346 37.95 42.508-42.508-37.346-37.95zM474.291 364.659l-42.508 42.508 37.346 37.95 42.508-42.508-37.346-37.95zM553.799 445.453l-42.508 42.51 37.346 37.95 42.508-42.508-37.346-37.952zM633.309 526.249l-42.508 42.508 37.346 37.95 42.508-42.508-37.346-37.95zM712.819 607.043l-42.508 42.508 46.786 47.542 42.508-42.508-46.786-47.542z" />
<glyph unicode="&#xe920;" glyph-name="hook-1" d="M577.82 494.134h-35.82v258.864l43.678 114.246c8.126 20.972 5.386 44.572-7.324 63.126-12.71 18.552-33.726 29.63-56.216 29.63h-75.958c-16.568 0-30-13.432-30-30s13.432-30 30-30h75.96c3.546 0 5.61-1.924 6.714-3.54 1.108-1.616 2.156-4.236 0.876-7.542l-43.126-111.3c-3.054-7.882-4.604-16.166-4.604-24.622v-258.862h-35.82c-16.568 0-30-13.432-30-30v-498.134c0-16.568 13.432-30 30-30h131.64c16.568 0 30 13.432 30 30v498.134c0 16.57-13.432 30-30 30zM547.82-4h-71.64v438.134h71.64v-438.134z" />
<glyph unicode="&#xe921;" glyph-name="implant" d="M724.727 960h-53.336c-67.172 0-126.289-35.125-159.945-87.977-33.656 52.852-92.773 87.977-159.938 87.977h-53.344c-75.078 0-136.164-61.086-136.164-136.164v-146.164c0-52.789 23.773-101.883 65.234-134.688 5.219-4.125 11.672-6.367 18.328-6.367h44.664l12.742-64.781c-33.484-12.664-57.367-45.047-57.367-82.914 0-48.859 39.75-88.617 88.617-88.617h2.5l12.305-62.57c-36.938-10.68-64.039-44.781-64.039-85.117 0-48.867 39.75-88.617 88.617-88.617h9.602l11.109-56.492c8.156-41.438 44.719-71.508 86.953-71.508h60.359c42.227 0 78.797 30.070 86.953 71.508l11.109 56.492h9.602c48.867 0 88.617 39.75 88.617 88.617 0 40.336-27.094 74.438-64.039 85.117l12.305 62.57h2.508c48.859 0 88.609 39.758 88.609 88.617 0 37.867-23.883 70.25-57.367 82.914l12.742 64.781h44.664c6.656 0 13.117 2.242 18.328 6.375 41.461 32.797 65.234 81.891 65.234 134.68v146.164c0 75.078-61.078 136.164-136.164 136.164zM570.609 18.914c-2.719-13.813-14.906-23.836-28.984-23.836h-60.359c-14.078 0-26.266 10.023-28.984 23.836l-8.867 45.086h136.070zM649.289 123.078h-275.688c-16.289 0-29.539 13.25-29.539 29.539s13.25 29.539 29.539 29.539h275.688c16.289 0 29.539-13.25 29.539-29.539s-13.25-29.539-29.539-29.539zM614.344 241.234h-205.797l-11.625 59.070h229.047zM688.68 359.383h-354.461c-16.289 0-29.539 13.25-29.539 29.539s13.25 29.539 29.539 29.539h354.461c16.281 0 29.539-13.25 29.539-29.539s-13.258-29.539-29.539-29.539zM660.828 477.539h-298.766l-11.625 59.078h322.016zM801.82 677.672c0-31.352-12.805-60.727-35.43-81.977h-509.891c-22.625 21.25-35.422 50.625-35.422 81.977v146.164c0 42.508 34.578 77.086 77.086 77.086h53.336c71.906 0 130.406-58.5 130.406-130.398 0-16.313 13.227-29.539 29.539-29.539s29.539 13.227 29.539 29.539c0 71.898 58.5 130.398 130.406 130.398h53.336c42.508 0 77.086-34.578 77.086-77.086v-146.164z" />
<glyph unicode="&#xe922;" glyph-name="mask" d="M913.672 700.148c-13.055 0-127.453 0-141.867 0-80.039 0-124.328 36.055-176.367 70.617-50.664 33.633-116.141 33.648-166.82 0.031-2-1.32-84.023-70.648-176.414-70.648-14.422 0-128.82 0-141.867 0-60.844 0-110.336-49.352-110.336-110v-254.039c0-63.945 52.18-115.961 116.32-115.961h121.211c28.133-70.938 97.344-120 177.273-120h194.391c79.93 0 149.141 49.063 177.273 120h121.211c64.141 0 116.32 52.016 116.32 115.961v254.039c0.008 60.656-49.492 110-110.328 110zM60.008 336.109v254.039c0 27.57 22.578 50 50.328 50h73.578l40.164-360h-107.758c-31.055 0-56.313 25.102-56.313 55.961zM609.203 160.148h-194.398c-66.68 0-122.508 49.719-129.867 115.656l-40.648 364.344c87.82 0 174.008 42.297 219.375 81.859 30.242 19.023 68.695 18.617 98.586-1.227 67.516-44.828 113.305-80.633 217.469-80.633l-40.656-364.344c-7.352-65.938-63.18-115.656-129.859-115.656zM964.008 336.109c0-30.859-25.266-55.961-56.32-55.961h-107.758l40.164 360h73.578c27.758 0 50.336-22.43 50.336-50zM677.594 579.742c-5.008 0.828-123.117 20.406-165.586 20.406-42.477 0-160.586-19.578-165.594-20.406-16.344-2.719-27.391-18.18-24.672-34.523 2.445-14.672 15.156-25.078 29.555-25.078 4.383 0 122.094 20.008 160.711 20.008 31.148 0 122.984-14.148 155.742-19.594 16.344-2.711 31.797 8.328 34.516 24.664 2.719 16.344-8.328 31.805-24.672 34.523zM661.328 460.023c-142.344 12.953-156.305 12.953-298.648 0-16.5-1.5-28.664-16.094-27.156-32.594 1.5-16.5 16.117-28.672 32.594-27.156 138.508 12.602 149.266 12.602 287.781 0 16.422-1.516 31.086 10.602 32.594 27.156 1.5 16.5-10.664 31.094-27.164 32.594zM644.555 340.148h-265.102c-16.57 0-30-13.438-30-30 0-16.57 13.43-30 30-30h265.102c16.57 0 30 13.43 30 30 0 16.563-13.43 30-30 30z" />
<glyph unicode="&#xe923;" glyph-name="forceps" d="M769.348 32.302l-24.818 423.903c-2.846 45.090-39.232 80.748-83.84 83.228-8.564 15.618-24.448 42.11-54.608 88.924-21.47 33.328-42.732 65.38-52.176 79.55v13.070c60.466 6.024 107.842 57.186 107.842 119.212 0.004 66.066-53.744 119.812-119.806 119.812v-59.902c33.032 0 59.906-26.874 59.906-59.908s-26.874-59.91-59.906-59.91h-59.886c-33.032 0-59.906 26.874-59.906 59.908s26.872 59.908 59.906 59.908v59.904c-66.062 0-119.81-53.746-119.81-119.812 0-62.026 47.378-113.188 107.842-119.212v-13.070c-9.442-14.172-30.704-46.222-52.176-79.55-30.16-46.816-46.044-73.306-54.608-88.924-44.608-2.482-80.994-38.144-83.848-83.366l-24.81-423.767c-1.828-24.728 6.77-49.326 23.616-67.53 16.918-18.282 40.91-28.77 65.818-28.77 46.536 0 85.81 36.342 89.408 82.742l24.984 424.733c1.576 24.816-7.28 49.448-24.296 67.578-3.718 3.962-7.788 7.528-12.108 10.724 18.214 31.122 54.182 87.21 89.93 141.010 35.748-53.8 71.716-109.888 89.93-141.010-4.322-3.194-8.39-6.762-12.108-10.724-17.016-18.132-25.874-42.762-24.306-67.44l24.954-424.311 0.038-0.56c3.6-46.396 42.872-82.742 89.408-82.742 24.91 0 48.9 10.484 65.82 28.77 16.846 18.206 25.444 42.804 23.614 67.532zM373.751 23.146c-1.308-15.294-14.294-27.242-29.668-27.242-8.392 0-16.154 3.392-21.852 9.552-5.7 6.16-8.482 14.16-7.834 22.528l1.67 28.5h59.646l-1.962-33.338zM398.687 447.133l-19.45-330.743h-59.662l19.678 336.043c0.962 15.28 13.712 27.25 29.022 27.25 8.508 0 16.402-3.416 22.224-9.62 5.824-6.206 8.734-14.3 8.188-22.93zM625.307 447.273c-0.54 8.49 2.372 16.586 8.194 22.788 5.822 6.204 13.716 9.62 22.224 9.62 15.31 0 28.058-11.97 29.014-27.114l19.682-336.179h-59.658l-19.456 330.885zM701.769 5.458c-5.698-6.16-13.46-9.552-21.852-9.552-15.374 0-28.36 11.946-29.668 27.242l-1.96 33.338h59.64l1.636-27.932 0.038-0.568c0.648-8.37-2.132-16.368-7.834-22.528z" />
<glyph unicode="&#xe924;" glyph-name="tooth-5" d="M896 577.969c72.156 9.664 128 71.586 128 146.336v59.078c0 48.867-39.75 88.617-88.617 88.617h-846.766c-48.867 0-88.617-39.75-88.617-88.617v-59.078c0-74.758 55.844-136.672 128-146.336v-70.273c0-22.68 8.57-43.391 22.633-59.078-14.063-15.695-22.633-36.398-22.633-59.078v-70.273c-72.156-9.664-128-71.586-128-146.344v-59.078c0-48.859 39.75-88.609 88.617-88.609h846.766c48.867 0 88.617 39.75 88.617 88.609v59.078c0 74.758-55.844 136.68-128 146.344v70.273c0 22.68-8.57 43.383-22.633 59.078 14.063 15.688 22.633 36.398 22.633 59.078zM59.078 724.305v59.078c0 16.289 13.25 29.539 29.539 29.539h846.766c16.289 0 29.539-13.25 29.539-29.539v-59.078c0-42.094-29.508-77.43-68.922-86.406v7.641c0 48.859-39.75 88.617-88.617 88.617h-118.148c-22.68 0-43.391-8.578-59.078-22.641-15.695 14.063-36.398 22.641-59.078 22.641h-118.156c-22.68 0-43.383-8.578-59.078-22.641-15.688 14.063-36.398 22.641-59.078 22.641h-118.148c-48.867 0-88.617-39.758-88.617-88.617v-7.641c-39.414 8.977-68.922 44.313-68.922 86.406zM836.922 389.539v-137.844c0-16.289-13.25-29.539-29.539-29.539h-118.148c-16.289 0-29.539 13.25-29.539 29.539v167.383h147.688c16.289 0 29.539-13.25 29.539-29.539zM187.078 291.078v98.461c0 16.289 13.25 29.539 29.539 29.539h147.688v-167.383c0-16.289-13.25-29.539-29.539-29.539h-118.148c-16.289 0-29.539 13.25-29.539 29.539zM187.078 507.695v137.844c0 16.289 13.25 29.539 29.539 29.539h118.148c16.289 0 29.539-13.25 29.539-29.539v-167.383h-147.688c-16.289 0-29.539 13.25-29.539 29.539zM600.617 478.156h-177.234v167.383c0 16.289 13.25 29.539 29.539 29.539h118.156c16.289 0 29.539-13.25 29.539-29.539zM423.383 419.078h177.234v-167.383c0-16.289-13.25-29.539-29.539-29.539h-118.156c-16.289 0-29.539 13.25-29.539 29.539zM659.695 478.156v167.383c0 16.289 13.25 29.539 29.539 29.539h118.148c16.289 0 29.539-13.25 29.539-29.539v-137.844c0-16.289-13.25-29.539-29.539-29.539zM964.922 172.922v-59.078c0-16.281-13.25-29.539-29.539-29.539h-846.766c-16.289 0-29.539 13.258-29.539 29.539v59.078c0 42.094 29.508 77.43 68.922 86.414v-7.641c0-48.867 39.75-88.617 88.617-88.617h118.148c22.68 0 43.391 8.57 59.078 22.633 15.695-14.063 36.398-22.633 59.078-22.633h118.156c22.68 0 43.383 8.57 59.078 22.633 15.688-14.063 36.398-22.633 59.078-22.633h118.148c48.867 0 88.617 39.75 88.617 88.617v7.641c39.414-8.984 68.922-44.32 68.922-86.414z" />
<glyph unicode="&#xe925;" glyph-name="tooth-111" d="M529.848 934.398c0 0-8.702-1.908-18.516-7.914-9.814 6.006-17.766 7.412-17.766 7.412l-19.018-56.55c27.774-9.008 36.782-18.016 36.782-18.016s9.758 9.508 37.534 18.516l-19.016 56.552zM892.642 729.028c-24.028 69.75-73.196 121.102-134.902 140.888-113.48 36.394-207.348-8.396-245.814-31.952-38.466 23.558-132.33 68.35-245.816 31.952-61.732-19.796-110.912-71.178-134.928-140.972-31.414-91.284-15.63-196.526 42.224-281.524 37.638-55.294 62.21-117.676 71.064-180.402 0.514-3.64 1.016-7.362 1.508-11.166 19.688-152.73 59.28-233.13 117.68-238.97 1.928-0.192 3.834-0.29 5.724-0.29 32.168 0.004 58.714 27.954 78.962 83.198 14.516 39.6 25.95 92.588 32.198 149.206 4.268 38.668 14.634 60.114 22.578 71.294 2.802 3.95 6.722 4.538 8.808 4.538s6.006-0.588 8.808-4.534c7.946-11.186 18.31-32.634 22.578-71.298 6.248-56.616 17.682-109.606 32.196-149.206 20.25-55.25 46.792-83.198 78.962-83.198 1.886 0 3.796 0.098 5.722 0.29 58.4 5.84 97.994 86.24 117.682 238.978 0.472 3.662 0.956 7.25 1.452 10.762 8.842 62.838 33.478 125.42 71.244 180.982 57.768 84.992 73.496 190.198 42.070 281.424zM800.904 481.366c-42.906-63.122-70.932-134.488-81.044-206.378-0.526-3.742-1.042-7.56-1.546-11.458-7.878-61.118-19.6-111.366-33.898-145.31-12.058-28.63-23.14-39.020-28.584-41.16-4.692 3.626-16.036 18.172-28.098 55.492-10.924 33.798-19.708 77.492-24.732 123.032-4.558 41.32-15.766 74.792-33.314 99.492-13.262 18.662-34.856 29.806-57.766 29.806-22.908 0-44.502-11.142-57.764-29.808-17.544-24.692-28.752-58.166-33.314-99.49-5.026-45.54-13.808-89.234-24.732-123.032-12.060-37.32-23.406-51.866-28.098-55.492-5.442 2.138-16.524 12.532-28.584 41.16-14.298 33.942-26.020 84.192-33.896 145.31-0.522 4.050-1.058 8.012-1.606 11.884-10.132 71.778-38.1 142.942-80.88 205.798-47.252 69.418-60.368 154.722-35.086 228.188 17.796 51.71 52.962 89.372 96.482 103.328 22.544 7.228 45.422 10.842 68.5 10.842 25.922 0 52.090-4.56 78.298-13.678 38.038-13.232 61.942-31.594 62.092-31.71l18.5-14.722 18.588 14.652c0.236 0.184 24.14 18.546 62.18 31.778 49.532 17.232 98.92 18.186 146.798 2.836 43.5-13.95 78.658-51.588 96.458-103.264 25.296-73.41 12.228-158.684-34.954-228.096zM93.954 669.78l-59.66 6.866c-1.662-14.43-2.502-29.1-2.5-43.602 0-8.582 0.296-17.272 0.878-25.824l59.916 4.086c-0.492 7.196-0.742 14.512-0.742 21.738 0 12.216 0.708 24.574 2.108 36.736zM75.494 809.124c-10.92-20.172-19.99-41.858-26.958-64.45l57.386-17.7c5.812 18.83 13.342 36.854 22.386 53.566l-52.814 28.584zM101.932 553.678l-58.124-15.1c5.838-22.47 13.838-44.488 23.782-65.436l54.254 25.75c-8.326 17.536-15.026 35.968-19.912 54.786zM240.442 193.090l-0.198 1.542-59.554-7.74 0.186-1.438c2.972-23.066 6.826-44.794 11.452-64.576l58.476 13.672c-4.162 17.81-7.652 37.52-10.362 58.54zM152.402 447.12l-50.508-32.49c10.51-16.334 20.286-34.034 29.066-52.612l54.296 25.658c-9.886 20.926-20.94 40.926-32.854 59.444zM210.496 325.134l-56.856-19.33c6.452-18.978 12.014-38.696 16.534-58.608l58.564 13.294c-4.982 21.942-11.118 43.692-18.242 64.644zM170.224 914.5c-19.66-12.67-37.98-28.576-54.452-47.276l45.064-39.696c12.814 14.546 26.916 26.822 41.922 36.492l-32.534 50.48zM373.268 960l-4.080-59.916c19.342-1.316 38.972-4.324 58.352-8.938l13.91 58.42c-22.6 5.384-45.538 8.892-68.182 10.434zM383-3.18c-3.406-0.508-6.942-0.766-10.512-0.766-13.476 0.002-25.952 2.192-37.076 6.512l-21.734-55.984c18.080-7.018 37.864-10.58 58.806-10.582 6.534 0 13.058 0.48 19.392 1.428l-8.876 59.392zM452.42 61.136c-8.646-18.25-18.68-32.956-29.828-43.714l41.704-43.214c16.376 15.806 30.642 36.402 42.398 61.216l-54.274 25.712zM303.89 958.536c-23.192-2.628-46.14-7.476-68.206-14.412l18.010-57.29c18.406 5.788 37.568 9.832 56.952 12.026l-6.756 59.676zM268.544 78.398l-55.342-23.318c10.34-24.536 22.896-45.598 37.326-62.602l45.792 38.854c-10.468 12.336-19.814 28.17-27.776 47.066zM989.704 676.644l-59.66-6.866c1.4-12.158 2.108-24.518 2.108-36.734 0-7.226-0.25-14.542-0.74-21.74l59.916-4.086c0.582 8.554 0.878 17.242 0.878 25.824 0 14.502-0.84 29.172-2.502 43.602zM948.502 809.124l-52.814-28.584c9.046-16.714 16.576-34.736 22.386-53.566l57.386 17.7c-6.968 22.594-16.038 44.278-26.958 64.45zM922.068 553.678c-4.89-18.816-11.588-37.25-19.912-54.788l54.254-25.75c9.942 20.95 17.944 42.966 23.782 65.436l-58.124 15.102zM783.756 194.632l-0.2-1.542c-2.708-21.020-6.198-40.73-10.362-58.54l58.476-13.672c4.626 19.782 8.478 41.508 11.452 64.576l0.186 1.438-59.552 7.74zM871.598 447.12c-11.916-18.518-22.97-38.518-32.858-59.442l54.296-25.66c8.778 18.576 18.556 36.276 29.066 52.612l-50.504 32.49zM813.504 325.132c-7.126-20.95-13.262-42.7-18.242-64.644l58.564-13.294c4.518 19.912 10.084 39.632 16.534 58.608l-56.856 19.33zM853.774 914.498l-32.534-50.48c15.006-9.668 29.108-21.946 41.922-36.492l45.064 39.696c-16.472 18.7-34.79 34.606-54.452 47.276zM650.73 960c-22.644-1.542-45.582-5.050-68.184-10.434l13.91-58.42c19.38 4.614 39.012 7.622 58.352 8.938l-4.078 59.916zM688.584 2.566c-11.124-4.32-23.6-6.51-37.076-6.512-3.57 0-7.104 0.258-10.51 0.766l-8.878-59.394c6.334-0.946 12.858-1.428 19.39-1.428 20.942 0.002 40.728 3.564 58.806 10.582l-21.732 55.986zM571.582 61.136l-54.274-25.712c11.756-24.816 26.022-45.412 42.398-61.216l41.704 43.214c-11.15 10.758-21.186 25.466-29.828 43.714zM720.106 958.534l-6.756-59.676c19.384-2.194 38.542-6.24 56.952-12.026l18.010 57.292c-22.064 6.936-45.012 11.784-68.206 14.41zM542.124 175.124l-30.124-3.426-30.126 3.428c-2.394-21.040-5.908-40.954-10.444-59.19l31.272-7.778h18.594l31.272 7.778c-4.536 18.234-8.050 38.15-10.444 59.188zM755.454 78.396c-7.962-18.894-17.306-34.728-27.774-47.064l45.792-38.854c14.428 17.004 26.986 38.068 37.326 62.602l-55.344 23.316z" />
<glyph unicode="&#xe926;" glyph-name="toothbrush-2" d="M996.945 788.726c-28.078 28.016-68.922 33.797-102.094 19.5l-135.328 135.008c-11.711 11.687-30.672 11.687-42.383 0l-256.836-256.234c-11.742-11.711-11.75-30.758 0-42.477l130.914-130.609c-7.562-4.672-23.023-4.797-69.633-4.547-39.125 0.219-107.852 6.492-169.945-55.203l-317.734-315.453c-45.695-45.398-45.219-119.398 1.516-164.187 44.789-42.891 117.437-41.625 161.945 2.773l340.305 339.523c9.211 9.18 21.531 14.672 36.102 14.672 84.172 0 100.109 1.961 168.969 70.656l254.492 256.172c35.797 36.031 35.672 94.531-0.289 130.406zM738.336 879.625l109.492-109.242-42.602-42.711-109.602 109.344zM720.382 642.609l-109.812 109.555 42.578 42.477 109.703-109.453zM568.093 709.781l109.914-109.648-44.023-44.125-110.016 109.758zM954.671 700.601l-254.406-256.070c-53.164-53.047-53.148-53.039-126.516-53.039-30.945 0-58.195-12.008-78.445-32.18l-340.312-339.547c-21.625-21.57-56.641-22.422-78.062-1.914-22.266 21.344-22.57 56.602-0.742 78.297l317.742 315.445c24.594 24.437 57.266 37.898 91.992 37.898 67.758 0 95.133-1.719 117.477 4.773 30.812 8.953 308.75 294.265 310.453 296.281 12.555 8.141 29.602 6.797 40.719-4.289 12.586-12.562 12.625-33.047 0.102-45.656z" />
<glyph unicode="&#xe927;" glyph-name="toothbrush" d="M620.654 960h-83.968c-11.768 0-21.926-6.792-26.84-16.656h-106.5c-16.568 0-30-13.432-30-30v-229.028c0-16.568 13.432-30 30-30h100.532c0 0-53.494-189.726-53.494-192.5v-495.816c0-16.568 13.432-30 30-30h103.81c16.568 0 30 13.432 30 30v493.042l36.46 198.206v272.752c0 16.568-13.432 30-30 30zM506.686 714.316h-73.34v86.786h73.34v-86.786zM506.686 861.102h-73.34v22.242h73.34v-22.242zM590.654 660.022c0 0-36.46-196.36-36.46-198.206v-465.816h-43.81v461.638l55.16 194.19c0.758 2.666 1.142 5.424 1.142 8.198v239.974h23.968v-239.978z" />
<glyph unicode="&#xe928;" glyph-name="appointment1" d="M900.052 827.478v90.006h-60v-90.006h-60.008v90.006h-60v-90.006h-60.006v90.006h-60v-90.006h-60.008v90.006h-60v-90.006h-60.008v90.006h-60v-90.006h-60.008v90.006h-60v-90.006h-60.006v90.006h-60v-90.006h-120.008v-848.96h1024v848.96h-123.948zM964 38.516h-904v728.962h60.008v-70.006h60v70.006h60.006v-70.006h60v70.006h60.008v-70.006h60v70.006h60.008v-70.006h60v70.006h60.008v-70.006h60v70.006h60.006v-70.006h60v70.006h60.008v-70.006h60v70.006h63.948v-728.962zM120.008 635.464v-536.94h783.984v536.94h-783.984zM843.992 158.524h-663.984v416.94h663.984v-416.94zM651.534 436.13c-2.712 47.346-40.412 85.63-87.692 89.052-18.134 1.302-36.114-2.626-51.84-11.062-15.718 8.43-33.696 12.37-51.81 11.064-46.658-3.362-84.334-41.086-87.638-87.75-1.386-19.568 3.18-38.674 12.996-55.178-8.302-46.008-1.666-119.952 67.028-163.608l31.842-20.238 26.706 75.768 27.174-77.098 32.264 22.156c65.728 45.132 72.998 117.806 66.458 160.648 10.568 16.63 15.664 36.108 14.512 56.246zM582.684 407.23l-11.074-12.224 4.388-15.9c3.906-14.154 6.774-48.53-10.408-78.964l-17.428 49.448c-5.528 15.682-20.412 26.218-37.040 26.218s-31.512-10.536-37.040-26.218l-18.062-51.246c-21.928 36.586-10.084 79.708-9.418 82.034l4.414 15.448-10.412 12.236c-5.944 6.984-8.856 15.912-8.204 25.136 1.21 17.094 15.012 30.912 32.102 32.144 0.882 0.064 1.76 0.096 2.634 0.096 9.046 0 17.522-3.392 24.098-9.7l20.766-19.918 20.766 19.914c7.214 6.918 16.71 10.328 26.746 9.604 17.034-1.232 31.142-15.57 32.12-32.638 0.54-9.458-2.636-18.504-8.948-25.47z" />
<glyph unicode="&#xe929;" glyph-name="braces-1" d="M0 756.692v-231.258c0-212.91 173.216-386.126 386.126-386.126h251.748c212.91 0 386.126 173.216 386.126 386.126v231.258h-1024zM817.348 638.724c18.244 49.612 42.71 56.896 55.618 57.966l9.778 0.002c36.5-2.95 55.534-44.058 65.45-86.186h-41.194v20.328h-60v-20.328h-38.054c2.292 9.582 5.054 19.116 8.402 28.218zM778.702 696.692c-6.096-10.042-11.764-21.674-16.842-35.11-5.81 13.424-12.168 25.070-18.924 35.11h35.766zM631.164 696.692h9.52c40.038-2.886 62.922-42.134 75.99-86.186h-50.764v20.328h-60v-20.328h-50.766c13.064 44.104 35.952 83.3 76.020 86.186zM542.752 550.508h63.156v-22.644h60v22.644h63.18c2.968-21.908 4.172-41.204 4.652-53.36 0.342-8.69-3.056-17.152-9.324-23.218l-1.204-1.164c-5.756-5.568-13.336-8.636-21.344-8.636h-133.122c-8.274 0-16.318 3.412-22.068 9.36-5.78 5.98-8.916 14.204-8.602 22.562 0.464 12.372 1.656 32.096 4.676 54.456zM528.906 696.692c-7.502-11.154-14.512-24.286-20.826-39.64-6.32 15.368-13.342 28.48-20.852 39.64h41.678zM375.458 696.692h9.52c40.038-2.886 62.922-42.134 75.988-86.186h-51.334v20.328h-60v-20.328h-50.196c13.064 44.104 35.952 83.3 76.022 86.186zM287.046 550.508h62.588v-22.644h60v22.644h63.748c2.966-21.908 4.17-41.204 4.65-53.36 0.342-8.69-3.056-17.152-9.324-23.218l-1.202-1.164c-5.756-5.568-13.336-8.636-21.344-8.636h-133.122c-8.274 0-16.318 3.412-22.070 9.36h0.002c-5.78 5.98-8.916 14.204-8.602 22.562 0.464 12.372 1.656 32.096 4.676 54.456zM273.2 696.692c-5.826-8.66-11.346-18.538-16.484-29.69-4.524 11.184-9.478 21.016-14.744 29.69h31.228zM80.978 638.724c18.244 49.612 42.71 56.896 55.618 57.966l9.78 0.002c36.5-2.95 55.534-44.058 65.45-86.186h-39.688v21.486h-60v-21.486h-39.56c2.292 9.582 5.054 19.116 8.4 28.218zM61.948 527.754c0.236 6.284 0.654 14.040 1.384 22.752h48.808v-21.488h60v21.488h48.834c0.728-8.674 1.132-16.164 1.356-21.814 0.25-6.314-2.224-12.466-6.784-16.88l-1.030-0.996c-4.186-4.050-9.698-6.282-15.522-6.282h-114.748c-6.016 0-11.864 2.48-16.046 6.806-4.202 4.346-6.482 10.328-6.252 16.414zM637.874 199.308h-251.748c-152.38 0-280.67 105.056-316.286 246.538 4.736-0.85 9.554-1.314 14.406-1.314h114.75c11.974 0 23.588 2.562 34.198 7.412 3.914-7.316 8.808-14.126 14.638-20.156 16.992-17.578 40.76-27.66 65.208-27.66h133.122c22.856 0 44.516 8.476 61.288 23.88 16.63-15.226 38.666-23.88 61.298-23.88h133.122c23.666 0 46.064 9.064 63.066 25.52l1.202 1.162c6.93 6.706 12.672 14.406 17.092 22.768 11.5-5.856 24.33-9.044 37.384-9.044h114.75c6.48 0 12.852 0.762 19.020 2.218-35.3-141.94-163.806-247.444-316.51-247.444zM951.924 511.822l-1.044-1.008c-4.184-4.048-9.696-6.28-15.52-6.28h-114.75c-6.016 0-11.864 2.48-16.046 6.806-4.202 4.346-6.48 10.33-6.252 16.414 0.236 6.284 0.656 14.040 1.384 22.752h47.304v-22.644h60v22.644h50.34c0.73-8.674 1.136-16.162 1.358-21.812 0.25-6.314-2.224-12.468-6.774-16.872z" />
<glyph unicode="&#xe92a;" glyph-name="braces" d="M896 577.969c72.156 9.664 128 71.586 128 146.336v59.078c0 48.867-39.75 88.617-88.617 88.617h-846.766c-48.867 0-88.617-39.75-88.617-88.617v-59.078c0-74.758 55.844-136.672 128-146.336v-70.273c0-22.68 8.57-43.391 22.633-59.078-14.063-15.695-22.633-36.398-22.633-59.078v-70.273c-72.156-9.664-128-71.586-128-146.344v-59.078c0-48.859 39.75-88.609 88.617-88.609h846.766c48.867 0 88.617 39.75 88.617 88.609v59.078c0 74.758-55.844 136.68-128 146.344v70.273c0 22.68-8.57 43.383-22.633 59.078 14.063 15.688 22.633 36.398 22.633 59.078zM836.922 606.156h-59.078c0 16.313-13.227 29.539-29.539 29.539s-29.539-13.227-29.539-29.539h-59.070v39.383c0 16.289 13.25 29.539 29.539 29.539h118.148c16.289 0 29.539-13.25 29.539-29.539zM600.617 251.695c0-16.289-13.25-29.539-29.539-29.539h-118.156c-16.289 0-29.539 13.25-29.539 29.539v39.383h59.078c0-16.313 13.227-29.539 29.539-29.539s29.539 13.227 29.539 29.539h59.078zM541.539 350.156c0 16.313-13.227 29.539-29.539 29.539s-29.539-13.227-29.539-29.539h-59.078v68.922h177.234v-68.922zM600.617 478.156h-177.234v68.922h59.078c0-16.313 13.227-29.539 29.539-29.539s29.539 13.227 29.539 29.539h59.078zM541.539 606.156c0 16.313-13.227 29.539-29.539 29.539s-29.539-13.227-29.539-29.539h-59.078v39.383c0 16.289 13.25 29.539 29.539 29.539h118.156c16.289 0 29.539-13.25 29.539-29.539v-39.383zM364.305 645.539v-39.383h-59.070c0 16.313-13.227 29.539-29.539 29.539s-29.539-13.227-29.539-29.539h-59.078v39.383c0 16.289 13.25 29.539 29.539 29.539h118.148c16.289 0 29.539-13.25 29.539-29.539zM187.078 507.695v39.383h59.078c0-16.313 13.227-29.539 29.539-29.539s29.539 13.227 29.539 29.539h59.070v-68.922h-147.688c-16.289 0-29.539 13.25-29.539 29.539zM364.305 419.078v-68.922h-59.070c0 16.313-13.227 29.539-29.539 29.539s-29.539-13.227-29.539-29.539h-59.078v39.383c0 16.289 13.25 29.539 29.539 29.539zM187.078 291.078h59.078c0-16.313 13.227-29.539 29.539-29.539s29.539 13.227 29.539 29.539h59.070v-39.383c0-16.289-13.25-29.539-29.539-29.539h-118.148c-16.289 0-29.539 13.25-29.539 29.539zM659.695 251.695v39.383h59.070c0-16.313 13.227-29.539 29.539-29.539s29.539 13.227 29.539 29.539h59.078v-39.383c0-16.289-13.25-29.539-29.539-29.539h-118.148c-16.289 0-29.539 13.25-29.539 29.539zM836.922 389.539v-39.383h-59.078c0 16.313-13.227 29.539-29.539 29.539s-29.539-13.227-29.539-29.539h-59.070v68.922h147.688c16.289 0 29.539-13.25 29.539-29.539zM659.695 478.156v68.922h59.070c0-16.313 13.227-29.539 29.539-29.539s29.539 13.227 29.539 29.539h59.078v-39.383c0-16.289-13.25-29.539-29.539-29.539zM59.078 724.305v59.078c0 16.289 13.25 29.539 29.539 29.539h846.766c16.289 0 29.539-13.25 29.539-29.539v-59.078c0-42.094-29.508-77.43-68.922-86.406v7.641c0 48.859-39.75 88.617-88.617 88.617h-118.148c-22.68 0-43.391-8.563-59.078-22.617-15.688 14.055-36.406 22.617-59.078 22.617h-118.156c-22.672 0-43.391-8.563-59.078-22.617-15.688 14.055-36.398 22.617-59.078 22.617h-118.148c-48.867 0-88.617-39.758-88.617-88.617v-7.641c-39.414 8.977-68.922 44.313-68.922 86.406zM964.922 172.922v-59.078c0-16.281-13.25-29.539-29.539-29.539h-846.766c-16.289 0-29.539 13.258-29.539 29.539v59.078c0 42.094 29.508 77.43 68.922 86.414v-7.641c0-48.867 39.75-88.617 88.617-88.617h118.148c22.68 0 43.391 8.563 59.078 22.617 15.688-14.055 36.406-22.617 59.078-22.617h118.156c22.672 0 43.391 8.563 59.078 22.617 15.688-14.055 36.398-22.617 59.078-22.617h118.148c48.867 0 88.617 39.75 88.617 88.617v7.641c39.414-8.984 68.922-44.32 68.922-86.414z" />
<glyph unicode="&#xe92b;" glyph-name="clean-tooth" d="M1002.375 729.539l-154.359 44.469-44.469 154.367c-8.289 28.797-49.336 28.875-57.648 0l-39.789-138.117c-66.953 65.687-166.812 87.609-258.211 32.109-35.359-21.437-79.281-21.445-114.625 0-187.086 113.594-400.258-98.742-313.211-311.328 26.641-65.133 38.5-134.891 34.305-201.727-9.562-152.484 60.32-288.125 167.648-358.234 9.852-6.437 13.531-4.914 65.242-4.352 16.437 0.18 29.672 13.555 29.672 30v214.367c0 40.766 31.984 74.602 71.297 75.414 41.5 0.82 74.281-35.141 74.281-77.164v-209.102c0-16.57 13.43-30 30-30 58.391 0 61.578-1.562 71.539 5.281 107.070 73.703 168.859 207.859 161.25 350.156-3.070 56.281 4.203 112.883 21.117 165.828 9.594-27.609 49.070-26.445 57.133 1.547l44.469 154.367 154.359 44.469c28.812 8.297 28.852 49.336 0 57.648zM665.383 302.438c6.32-118.172-42.523-229.203-127.937-292.203h-14.937v179.109c0 74.742-59.492 138.672-135.516 137.148-72.344-1.492-130.055-61.687-130.055-135.398v-184.695l-9.469-0.102c-88.711 62.242-140.789 178.602-133.219 299.25 4.766 75.82-8.602 154.734-38.656 228.219-64.734 158.078 88.383 321.187 226.547 237.305 54.555-33.086 122.32-33.086 176.883 0.008 63.656 38.641 126.656 24.32 171.617-11.703l-103.578-29.836c-28.805-8.297-28.852-49.344 0-57.656l154.367-44.469 15.844-55.016c-2.719-13.648-6.891-27.234-12.461-40.469-30.086-71.43-43.727-150.805-39.43-229.492zM815.469 680.484c-9.914-2.852-17.664-10.609-20.516-20.523l-20.234-70.227-20.227 70.227c-2.859 9.914-10.609 17.672-20.523 20.523l-70.219 20.227 70.219 20.227c9.914 2.859 17.672 10.609 20.523 20.531l20.227 70.219 20.234-70.219c2.852-9.922 10.609-17.672 20.516-20.531l70.227-20.227z" />
<glyph unicode="&#xe92c;" glyph-name="smile" d="M1007.164 639.166l-289.886 141.576c-29.366 14.34-62.598 16.524-93.588 6.15l-111.69-37.398-111.69 37.394c-30.992 10.376-64.224 8.192-93.588-6.15l-289.886-141.572c-10.302-5.032-16.836-15.492-16.836-26.954v-179.558c0-181.962 148.038-330 330-330h364c181.962 0 330 148.038 330 330v179.558c0 11.462-6.534 21.922-16.836 26.954zM173.082 428.154c8.832-5.122 19.076-8.072 30-8.072h110.118c4.786 0 9.436 0.58 13.902 1.644 11.014-13.216 27.588-21.644 46.098-21.644h110.118c10.924 0 21.168 2.95 30 8.072 8.832-5.122 19.076-8.072 30-8.072h110.118c18.508 0 35.084 8.428 46.098 21.644 4.466-1.064 9.116-1.644 13.902-1.644h110.118c10.924 0 21.168 2.95 30 8.072 8.832-5.122 19.076-8.072 30-8.072h3.792c-47.828-56.642-119.322-92.686-199.088-92.686h-352.512c-79.766 0-151.26 36.044-199.088 92.686h6.424c10.924 0 21.168 2.952 30 8.072zM203.082 480.082v92.114h110.118v-92.114h-110.118zM373.2 460.082v112.114h110.118v-112.114h-110.118zM653.466 478.812l0.004-18.73c0 0-0.012-0.002-0.038-0.002h-110.118v112.114h110.118v-92.114c0.002-0.424 0.026-0.842 0.034-1.268zM713.432 480.082v92.114h110.118v-92.114h-110.118zM883.552 480.082v92.114h64.746c-1.958-32.678-9.954-63.754-22.902-92.114h-41.844zM333.054 726.826c15.124 7.386 32.244 8.512 48.208 3.166l121.214-40.582c6.18-2.068 12.868-2.068 19.046 0l121.216 40.582c15.96 5.344 33.084 4.22 48.206-3.166l193.77-94.63h-745.428l193.768 94.63zM143.080 572.196v-92.114h-44.476c-12.95 28.362-20.944 59.436-22.902 92.114h67.378zM694 162.65h-364c-146.138 0-265.52 116.708-269.866 261.812 55.944-93.966 158.54-157.068 275.612-157.068h352.508c117.072 0 219.668 63.102 275.612 157.068-4.346-145.104-123.728-261.812-269.866-261.812z" />
<glyph unicode="&#xe92d;" glyph-name="dental-floss" d="M899.086 811.204c16.568 0 30 13.432 30 30v88.796c0 16.568-13.432 30-30 30h-289.306c-66.328 0-126.736-39.098-153.898-99.608l-352.224-784.66c-13.828-30.804-11.128-66.118 7.216-94.462 18.348-28.348 49.46-45.27 83.224-45.27h257.132c54.384 0 98.856 44.244 99.132 98.626l1.596 311.534c0.304 59.626 49.064 108.134 108.692 108.134h238.434c16.568 0 30 13.432 30 30v88.798c0 16.568-13.432 30-30 30h-36.638v208.112h36.64zM665.872 639.734v134.828c0 20.204 16.436 36.64 36.638 36.64h99.938v-208.11l-99.938 0.002c-20.204 0-36.638 16.436-36.638 36.64zM702.508 871.204c-53.288 0-96.638-43.352-96.638-96.64v-134.83c0-53.288 43.352-96.64 96.638-96.64h166.576v-28.798h-208.432c-92.542 0-168.216-75.288-168.692-167.828l-1.596-311.536c-0.108-21.468-17.664-38.932-39.132-38.932h-257.134c-13.53 0-25.504 6.514-32.854 17.87-7.352 11.358-8.39 24.95-2.85 37.292l352.226 784.658c17.5 38.988 56.424 64.18 99.16 64.18h259.304v-28.796h-166.576z" />
<glyph unicode="&#xe92e;" glyph-name="implant1" d="M569.25 928.445c-35.977-21.297-78.937-21.297-114.922 0-191.57 113.375-408.875-99.367-319.703-311.664 27.289-65.047 39.445-134.68 35.148-201.383-10.273-159.375 52.75-312.156 207.727-356.734v-92.672c0-16.562 13.43-29.992 30-29.992h210.82c16.57 0 30 13.43 30 29.992v93.336c152.859 45.273 215.75 196.781 205.484 356.070-4.297 66.703 7.859 136.336 35.141 201.375 89.016 211.914-127.937 425.156-319.695 311.672zM437.5-4.008v187.484l150.828 42.68v-230.172h-150.828zM588.328 348.141v-59.633l-150.828-42.68v59.641zM437.5 367.813v31.336c0 40.75 33.133 74.57 73.852 75.391 38.289 0.867 69.969-27.961 75.922-64.352zM833.625 639.984c-30.859-73.547-44.586-152.539-39.695-228.437 7.32-113.656-28.281-243.531-145.609-288.867v120.461l22.906 6.484c15.945 4.508 25.211 21.086 20.695 37.023-4.508 15.945-21.086 25.203-37.031 20.695l-6.57-1.859v59.641l22.906 6.477c15.945 4.516 25.211 21.094 20.695 37.031-4.508 15.937-21.086 25.203-37.031 20.695l-9.758-2.766c-13.742 62.945-69.18 109.305-134.984 107.953-73.164-1.477-132.648-61.078-132.648-135.367v-48.32l-19.062-5.391c-15.937-4.516-25.203-21.094-20.695-37.031 3.742-13.211 15.766-21.836 28.852-21.836 4.703 0 7.742 1.016 10.906 1.914v-59.641l-19.062-5.391c-37.203-10.531-24.047-69.156 19.062-56.953v-44.672c-119.094 44.531-155.234 175.211-147.852 289.719 4.891 75.898-8.836 154.891-39.703 228.453-66.477 158.273 91.289 321.18 233.82 236.812 54.297-32.125 121.75-32.125 176.047 0 142.75 84.492 300.156-78.875 233.812-236.828z" />
<glyph unicode="&#xe92f;" glyph-name="protection" d="M747.934 588.85c-15.434 44.806-47.282 77.876-87.376 90.734-65.66 21.058-121.020-1.010-148.56-16.332-27.54 15.318-82.906 37.382-148.56 16.328-40.112-12.862-71.966-45.954-87.394-90.788-19.766-57.436-9.918-123.532 26.342-176.804 21.108-31.012 34.882-65.942 39.834-101.030 0.296-2.094 0.584-4.234 0.866-6.42 12.604-97.784 38.888-147.334 80.354-151.482 1.628-0.162 3.218-0.242 4.784-0.24 53.158 0.008 71.414 91.968 77.588 147.91 1.336 12.116 3.69 20.796 6.188 26.964 2.498-6.168 4.852-14.85 6.188-26.964 6.356-57.59 25.526-153.34 82.374-147.668 41.464 4.148 67.748 53.698 80.35 151.474 0.272 2.114 0.552 4.186 0.836 6.21 4.946 35.144 18.758 70.198 39.942 101.366 36.208 53.27 46.018 119.342 26.244 176.742zM671.972 445.9c-26.33-38.736-43.534-82.576-49.754-126.788-0.316-2.246-0.626-4.538-0.928-6.886-6.552-50.836-16.216-78.184-23.142-91.084-6.822 15.080-15.61 44.542-20.204 86.178-2.92 26.46-10.268 48.128-21.834 64.406-10.128 14.254-26.616 22.764-44.11 22.764s-33.982-8.508-44.108-22.762c-11.568-16.28-18.914-37.948-21.834-64.408-4.596-41.636-13.382-71.098-20.204-86.178-6.926 12.9-16.592 40.25-23.144 91.086-0.314 2.438-0.636 4.822-0.964 7.144-6.23 44.14-23.404 87.864-49.662 126.446-25.646 37.676-32.82 83.814-19.194 123.414 9.198 26.732 27.024 46.088 48.906 53.106 61.18 19.616 109.714-16.844 111.596-18.284l18.148-15.432 18.914 15.312c2.036 1.564 50.572 38.022 111.75 18.404 21.872-7.014 39.692-26.358 48.894-53.070 13.632-39.574 6.484-85.692-19.126-123.368zM898.206 727.466c-167.238 30.556-363.776 211.68-365.742 213.504l-20.464 19.030-20.47-19.036c-1.962-1.826-198.222-182.894-365.736-213.5l-24.654-4.504v-264.43c0-128.39 47.294-251.848 129.752-338.714 60.826-64.076 258.404-171.51 266.786-176.052l14.322-7.764 14.322 7.764c8.382 4.542 205.96 111.976 266.786 176.052 82.46 86.866 129.752 210.324 129.752 338.714v264.43l-24.654 4.506zM862.744 458.53c0-113.146-41.272-221.516-113.236-297.324-41.578-43.8-174.24-121.646-237.508-156.73-63.268 35.084-195.93 112.928-237.508 156.73-71.964 75.81-113.236 184.178-113.236 297.324v215.16c145.672 36.596 296.704 158.318 350.744 205.036 54.040-46.718 205.072-168.442 350.744-205.036v-215.16z" />
<glyph unicode="&#xe930;" glyph-name="teeth" d="M571.078 340.305h-118.156c-48.859 0-88.617-39.75-88.617-88.609v-137.852c0-48.859 39.758-88.609 88.617-88.609h118.156c48.859 0 88.617 39.75 88.617 88.609v137.852c0 48.859-39.758 88.609-88.617 88.609zM600.617 113.844c0-16.281-13.25-29.539-29.539-29.539h-118.156c-16.289 0-29.539 13.258-29.539 29.539v137.852c0 16.281 13.25 29.539 29.539 29.539h118.156c16.289 0 29.539-13.258 29.539-29.539zM935.383 872h-846.766c-48.867 0-88.617-39.75-88.617-88.617v-59.078c0-74.758 55.844-136.672 128-146.336v-70.273c0-48.867 39.75-88.617 88.617-88.617h177.227c16.313 0 29.539 13.227 29.539 29.539v196.922c0 16.289 13.25 29.539 29.539 29.539h118.156c16.289 0 29.539-13.25 29.539-29.539v-196.922c0-16.313 13.227-29.539 29.539-29.539h177.227c48.867 0 88.617 39.75 88.617 88.617v70.273c72.156 9.664 128 71.586 128 146.336v59.078c0 48.867-39.75 88.617-88.617 88.617zM364.305 478.156h-147.688c-16.289 0-29.539 13.25-29.539 29.539v137.844c0 16.289 13.25 29.539 29.539 29.539h118.148c16.289 0 29.539-13.25 29.539-29.539zM836.922 507.695c0-16.289-13.25-29.539-29.539-29.539h-147.688v167.383c0 16.289 13.25 29.539 29.539 29.539h118.148c16.289 0 29.539-13.25 29.539-29.539zM964.922 724.305c0-42.094-29.508-77.43-68.922-86.406v7.641c0 48.859-39.75 88.617-88.617 88.617h-118.148c-22.68 0-43.391-8.563-59.078-22.617-15.688 14.055-36.406 22.617-59.078 22.617h-118.156c-22.672 0-43.391-8.563-59.078-22.617-15.688 14.055-36.398 22.617-59.078 22.617h-118.148c-48.867 0-88.617-39.758-88.617-88.617v-7.641c-39.414 8.977-68.922 44.313-68.922 86.406v59.078c0 16.289 13.25 29.539 29.539 29.539h846.766c16.289 0 29.539-13.25 29.539-29.539z" />
<glyph unicode="&#xe931;" glyph-name="tooth-14" d="M787.32 370.333c4.12 38.266 6.228 77.904 6.228 118.284 0 19.85 10.042 34.744 27.792 59.36 25.192 34.934 59.694 82.78 59.694 171.888 0 64.282-25.592 124.788-72.062 170.37-47.122 46.222-109.204 71.016-174.752 69.716-59.35-1.142-116.036-23.986-159.622-64.32-5.202-4.812-13.35-4.812-18.55 0-43.586 40.332-100.272 63.176-159.618 64.32-65.62 1.286-127.64-23.492-174.76-69.714-46.472-45.584-72.064-106.092-72.064-170.376 0-83.546 32.152-132.046 57.99-171.014 17.078-25.76 29.414-44.37 29.414-66.782 0-367.273 157.408-500.563 164.11-506.057l48.798-40.010v63.104c0 75.078 14.752 164.798 38.502 234.144 25.368 74.074 54.876 107.23 72.868 107.23 12.082 0 27.636-12.894 42.678-35.38 16.89-25.254 32.422-61.070 45.106-103.892-2.968-14.208-4.536-28.926-4.536-44.002 0-118.514 96.418-214.93 214.93-214.93 118.514 0 214.932 96.416 214.932 214.93-0.002 109.076-81.678 199.428-187.078 213.13zM553.603 338.301c-27.472 41.074-58.532 61.9-92.322 61.9-51.566 0-96.302-51.042-129.372-147.604-17.84-52.094-30.998-114.762-37.39-175.36-8.412 13.022-17.386 28.52-26.334 46.674-32.598 66.14-71.454 181.964-71.454 358.157 0 40.412-20.010 70.594-39.362 99.784-23.62 35.628-48.044 72.466-48.044 138.012 0 48.112 19.236 93.476 54.164 127.736 35.576 34.898 82.37 53.55 131.78 52.638 44.69-0.862 87.38-18.068 120.206-48.444 27.948-25.864 71.732-25.864 99.682 0 32.826 30.376 75.516 47.582 120.208 48.444 49.342 0.922 96.202-17.742 131.778-52.638 34.928-34.258 54.162-79.624 54.162-127.734 0-69.822-24.61-103.95-48.412-136.954-19.21-26.64-39.074-54.186-39.074-94.292 0-40.74-2.264-80.614-6.674-118.912-58.994-8.934-110.194-41.938-143.246-88.65-9.35 21.858-19.534 41.154-30.296 57.244zM759.463 1.996c-85.578 0-155.204 69.626-155.204 155.204s69.626 155.204 155.204 155.204c85.58 0 155.206-69.626 155.206-155.204s-69.626-155.204-155.206-155.204zM790.254 244.513l-43.094-80.432-29.498 29.5-42.232-42.232 86.384-86.386 81.084 151.342z" />
<glyph unicode="&#xe932;" glyph-name="dental-care1" d="M1019.626 255.452c-7.18 23.026-22.442 42.112-42.978 53.744-21.168 11.99-45.338 14.684-68.060 7.582l-203.28-63.528-230.808 128.6c-57.264 31.904-122.284 39.016-183.084 20.012l-104.368-37.106v27.69h-187.048v-315.672h187.046v27.594l132.834 40.068 294.196-111.744 349.088 109.092c22.72 7.1 41.066 23.078 51.664 44.994 10.276 21.258 11.98 45.65 4.798 68.674zM127.104 136.776h-67.162v195.67h67.164v-195.67zM960.868 212.914c-3.3-6.828-8.828-11.748-15.566-13.854l-329.322-102.916-293.882 111.628-135.050-40.734v134.050l122.762 43.666c44.814 13.84 92.932 8.408 135.536-15.33l253.278-141.122 227.826 71.2c6.734 2.104 14.082 1.208 20.678-2.53 7.23-4.094 12.656-10.984 15.28-19.402 2.624-8.414 2.078-17.174-1.54-24.656zM948.202 769.452c-14.56 42.304-44.64 73.544-82.528 85.706-60.946 19.562-112.472-0.418-138.724-14.82-26.26 14.4-77.796 34.376-138.732 14.82-37.904-12.166-67.99-43.424-82.542-85.756-18.582-54.050-9.338-116.23 24.728-166.332 19.45-28.606 32.14-60.816 36.7-93.16 0.276-1.94 0.54-3.924 0.802-5.952 11.858-92.074 36.884-138.76 76.51-142.724 17.86-1.774 42.812 6.18 60.42 54.258 8.312 22.698 14.836 52.872 18.374 84.958 0.874 7.932 2.24 14.21 3.738 19.126 1.498-4.916 2.864-11.194 3.738-19.126 3.538-32.084 10.062-62.258 18.374-84.956 16.174-44.172 38.56-54.484 55.93-54.484 1.536 0 3.036 0.082 4.488 0.226 39.626 3.964 64.654 50.65 76.516 142.75 0.25 1.95 0.508 3.86 0.768 5.722 4.554 32.398 17.28 64.72 36.802 93.47 34.016 50.098 43.226 112.256 24.638 166.274zM873.992 636.906c-24.652-36.3-40.76-77.396-46.588-118.846-0.294-2.108-0.586-4.258-0.864-6.43-5.488-42.626-13.352-67.35-19.436-80.324-6.076 14.998-13.032 41.194-16.838 75.72-2.752 24.966-9.702 45.454-20.66 60.89-9.792 13.798-25.74 22.038-42.656 22.038s-32.864-8.238-42.656-22.038c-10.958-15.438-17.908-35.922-20.66-60.888-3.806-34.528-10.762-60.724-16.838-75.722-6.084 12.974-13.948 37.696-19.436 80.322-0.292 2.278-0.594 4.504-0.9 6.676-5.836 41.384-21.916 82.372-46.5 118.524-23.484 34.538-30.062 76.798-17.602 113.046 8.342 24.264 24.44 41.81 44.166 48.146 54.938 17.626 98.774-14.342 101.916-16.71l18.178-15.296 18.818 15.282c2.962 2.238 46.886 34.386 101.938 16.726 19.716-6.33 35.81-23.866 44.156-48.114 12.468-36.226 5.912-78.47-17.538-113.002z" />
<glyph unicode="&#xe933;" glyph-name="floss" d="M913.116 600.78c-5.39 10.208-15.988 16.598-27.532 16.598l-526.942 0.010v77.244c0 17.168 13.968 31.136 31.136 31.136h217.96c51.504 0 93.406 41.902 93.406 93.406v109.69c0 17.196-13.94 31.136-31.136 31.136-17.194 0-31.136-13.94-31.136-31.136v-109.692c0-17.168-13.968-31.136-31.136-31.136h-217.96c-51.504 0-93.406-41.902-93.406-93.406v-77.256h-157.952c-11.544 0-22.142-6.386-27.532-16.598-34.182-64.728-52.252-137.834-52.252-211.414 0-121.1 47.16-234.948 132.788-320.578 85.63-85.626 199.48-132.784 320.578-132.784s234.948 47.158 320.578 132.788c85.628 85.63 132.788 199.48 132.788 320.578 0.002 73.58-18.068 146.686-52.25 211.414zM512.002-1.73c-215.65 0-391.094 175.444-391.094 391.094 0 57.268 12.672 114.18 36.79 165.74h708.616c24.116-51.56 36.79-108.47 36.79-165.74-0.008-215.65-175.452-391.094-391.102-391.094zM831.118 469.238c-3.454 13.868-15.912 23.598-30.206 23.598h-577.826c-14.294 0-26.75-9.73-30.21-23.598-6.438-25.806-9.704-52.678-9.704-79.872 0-181.314 147.51-328.824 328.824-328.824s328.824 147.51 328.824 328.824c0.002 27.192-3.262 54.064-9.702 79.872zM512.002 122.81c-146.978 0-266.554 119.576-266.554 266.554 0 13.91 1.044 27.692 3.116 41.2h526.88c2.072-13.508 3.116-27.292 3.116-41.2-0.004-146.978-119.58-266.554-266.558-266.554z" />
<glyph unicode="&#xe934;" glyph-name="mouthwash1" d="M523.039 665.805c-5.539 5.547-13.055 8.656-20.883 8.656h-88.617v59.633c44.242 4.922 78.766 42.523 78.766 88.062v49.227c0 48.867-39.75 88.617-88.609 88.617h-196.93c-48.859 0-88.609-39.75-88.609-88.617v-49.227c0-45.539 34.523-83.141 78.766-88.062v-59.633h-88.617c-7.828 0-15.344-3.109-20.883-8.656l-78.766-78.766c-5.539-5.539-8.656-13.055-8.656-20.883v-59.078c0-45.531 34.523-83.141 78.766-88.055v-217.742c-44.242-4.914-78.766-42.516-78.766-88.047v-98.469c0-10.18 5.242-19.648 13.883-25.047l78.766-49.227c4.695-2.937 10.125-4.492 15.656-4.492h393.851c5.531 0 10.961 1.555 15.656 4.492l78.766 49.227c8.641 5.398 13.883 14.867 13.883 25.047v98.469c0 45.531-34.523 83.133-78.766 88.055v217.734c44.242 4.914 78.766 42.516 78.766 88.055v59.078c0 7.828-3.109 15.344-8.648 20.883zM177.234 822.156v49.227c0 16.289 13.25 29.539 29.531 29.539h196.93c16.281 0 29.539-13.25 29.539-29.539v-49.227c0-16.289-13.258-29.539-29.539-29.539h-196.93c-16.281 0-29.531 13.25-29.531 29.539zM354.461 733.539v-59.078h-98.461v59.078zM551.383 113.235v-82.094l-57.703-36.062h-376.898l-57.703 36.062v82.094c0 16.281 13.25 29.531 29.539 29.531h433.226c16.289 0 29.539-13.25 29.539-29.531zM137.844 201.844v216.617h334.773v-216.617zM551.383 507.078c0-16.289-13.25-29.539-29.539-29.539h-433.226c-16.289 0-29.539 13.25-29.539 29.539v46.844l61.461 61.461h369.375l61.469-61.469zM384 339.695h-157.539c-16.312 0-29.539-13.227-29.539-29.539s13.227-29.539 29.539-29.539h157.539c16.312 0 29.539 13.227 29.539 29.539s-13.227 29.539-29.539 29.539zM1016.179 349.867c-5.594 6.070-13.469 9.516-21.719 9.516h-295.383c-8.25 0-16.125-3.445-21.719-9.516-5.586-6.062-8.391-14.187-7.727-22.406l29.539-364.312c1.25-15.336 14.055-27.148 29.445-27.148h236.305c15.391 0 28.195 11.812 29.445 27.148l29.539 364.312c0.664 8.219-2.141 16.344-7.727 22.406zM937.679-4.922h-181.82l-11.977 147.687h205.773zM954.445 201.844h-215.351l-7.984 98.461h231.32z" />
<glyph unicode="&#xe935;" glyph-name="report" d="M278 498.047h50v-49.992c0-16.563 13.43-29.992 30-29.992s30 13.43 30 29.992v49.992h50c16.57 0 30 13.438 30 30s-13.43 29.992-30 29.992h-50v50c0 16.563-13.43 29.992-30 29.992s-30-13.43-30-29.992v-50h-50c-16.57 0-30-13.43-30-29.992s13.43-30 30-30zM1024 326.609c0 115.391-130.211 187.297-235.008 132.969-20.945-10.852-47.953-10.93-68.992-0.266v268.711c0 60.648-49.344 109.992-110 109.992h-50v31.992c0 16.57-13.43 30-30 30h-49.945c-59.602 80-180.523 79.984-240.109 0h-49.945c-16.57 0-30-13.43-30-30v-31.992h-50c-60.656 0-110-49.344-110-109.992v-619.93c0-60.648 49.344-109.992 110-109.992 483.969 0 453.648-0.383 458.766 0.797 18.875-23.836 42.398-43.914 69.422-58.984 8.82-4.922 11.828-3.805 55.813-3.805 16.57 0 30 13.43 30 30v119.844c0 16.547 13.461 30 30 30 16.547 0 30-13.453 30-30v-119.695c0-16.57 13.438-30 30-30 47.594 0 50.602-1.211 59.703 4.141 74.414 43.727 119 127.742 113.586 214.055-5.688 88.93 36.711 106.172 36.711 172.156zM220 840.016h36.055c10.711 0 20.609 5.711 25.969 14.977 34.688 59.945 121.234 60 155.953 0 5.359-9.266 15.258-14.977 25.969-14.977h36.055v-61.992h-280zM60 108.094v619.93c0 27.57 22.43 50 50 50h50v-30c0-16.563 13.43-29.992 30-29.992h340c16.57 0 30 13.43 30 29.992v30h50c27.57 0 50-22.43 50-50v-250.938c-79.813 7.789-155.18-42.469-172.117-119.023h-335.883c-16.57 0-30-13.43-30-29.992 0-16.57 13.43-30 30-30h335.578c4.781-21.867 13.867-39.844 21.281-59.992h-356.859c-16.57 0-30-13.43-30-29.992 0-16.57 13.43-30 30-30h368.703c0.586-23.758-7.625-63.852 14.141-119.984h-424.844c-27.57-0.008-50 22.422-50 49.992zM927.406 150.664c3.844-61.305-26.359-121.055-77.438-154.414h-5.969v89.703c0 49.625-40.375 89.992-90 89.992s-90-40.367-90-89.992v-89.852h-3.070c-54.719 33.578-85.578 92.742-80.922 156.172 7.086 96.289-35.57 131.836-35.57 174.336 0 71.008 83.055 113.063 147.414 79.695 38.469-19.922 86.266-19.922 124.75 0.008 64.508 33.445 147.398-8.859 147.398-79.703 0-44.398-43.070-74.555-36.594-175.945z" />
<glyph unicode="&#xe936;" glyph-name="toothpaste1" d="M785.074 88.732l-113.31 678.342h-51.71v192.926h-215.692v-192.926h-55.922l-107.448-678.266-6.032-152.808h554.080l-3.966 152.732zM464.308 900.056h95.802v-132.98h-95.802v132.98zM399.636 707.13h221.366l12.682-75.93h-246.078l12.030 75.93zM378.112 571.256h265.588l52.218-312.606h-367.328l49.522 312.606zM319.092 198.706h386.838l13.844-82.874h-413.81l13.128 82.874zM358.054-4.056h-60.736l2.364 59.944h58.372v-59.944zM479.94-4.056h-61.942v59.944h61.942v-59.944zM605.824-4.056h-65.938v59.944h65.938v-59.944zM665.768-4.056v59.944h60.194l1.558-59.944h-61.752z" />
<glyph unicode="&#xe937;" glyph-name="braces1" d="M1024 743.918h-1024v-591.836h1024v227.674c0 2.278-0.056 4.542-0.136 6.802h0.136v357.36zM321.418 366.638h-70.654v29.874h-119.498v-119.498h119.498v29.874h70.654v-95.058h-261.67v167.924c0 72.142 58.692 130.834 130.834 130.834s130.834-58.692 130.834-130.834v-13.116zM642.834 211.832h-261.668v95.058h67.796v-29.874h119.498v29.874h74.376v-95.058zM642.834 366.638h-74.376v29.874h-119.498v-29.874h-67.796v13.116c0 72.142 58.692 130.834 130.834 130.834s130.834-58.692 130.834-130.834v-13.116zM964.252 211.832h-261.668v95.058h71.086v-29.874h119.498v119.498h-119.498v-29.874h-71.086v13.116c0 72.142 58.692 130.834 130.834 130.834s130.834-58.692 130.834-130.834v-167.924zM964.252 518.204c-34.16 32.3-80.222 52.134-130.834 52.134-67.45 0-126.826-35.224-160.708-88.244-33.882 53.018-93.258 88.244-160.708 88.244s-126.826-35.224-160.708-88.244c-33.882 53.018-93.258 88.244-160.708 88.244-50.612 0-96.674-19.836-130.834-52.134v165.964h904.502v-165.964z" />
</font>
</defs>
</svg>
